  0
SECTION
  2
HEADER
  9
$ACADVER
  1
AC1009
  9
$INSBASE
 10
0.0
 20
0.0
 30
0.0
  9
$EXTMIN
 10
-0.350000
 20
0.000000
 30
0.000000
  9
$EXTMAX
 10
419.650000
 20
297.000000
 30
0.000000
  9
$LIMMIN
 10
0.0
 20
0.0
  9
$LIMMAX
 10
420.0
 20
297.0
  9
$ORTHOMODE
 70
     0
  9
$REGENMODE
 70
     1
  9
$FILLMODE
 70
     1
  9
$QTEXTMODE
 70
     0
  9
$MIRRTEXT
 70
     1
  9
$DRAGMODE
 70
     2
  9
$LTSCALE
 40
1.0
  9
$OSMODE
 70
     0
  9
$ATTMODE
 70
     1
  9
$TEXTSIZE
 40
3.0
  9
$TRACEWID
 40
10.0
  9
$TEXTSTYLE
  7
STANDARD
  9
$CLAYER
  8
0
  9
$CELTYPE
  6
BYLAYER
  9
$CECOLOR
 62
   256
  9
$DIMSCALE
 40
1.0
  9
$DIMASZ
 40
3.0
  9
$DIMEXO
 40
2.5
  9
$DIMDLI
 40
10.0
  9
$DIMRND
 40
0.0
  9
$DIMDLE
 40
1.25
  9
$DIMEXE
 40
2.5
  9
$DIMTP
 40
0.0
  9
$DIMTM
 40
0.0
  9
$DIMTXT
 40
3.0
  9
$DIMCEN
 40
-3.0
  9
$DIMTSZ
 40
0.0
  9
$DIMTOL
 70
     0
  9
$DIMLIM
 70
     0
  9
$DIMTIH
 70
     0
  9
$DIMTOH
 70
     0
  9
$DIMSE1
 70
     0
  9
$DIMSE2
 70
     0
  9
$DIMTAD
 70
     0
  9
$DIMZIN
 70
     0
  9
$DIMBLK
  1

  9
$DIMASO
 70
     1
  9
$DIMSHO
 70
     0
  9
$DIMPOST
  1

  9
$DIMAPOST
  1

  9
$DIMALT
 70
     0
  9
$DIMALTD
 70
     2
  9
$DIMALTF
 40
0.039
  9
$DIMLFAC
 40
1.0
  9
$DIMTOFL
 70
     0
  9
$DIMTVP
 40
1.5
  9
$DIMTIX
 70
     0
  9
$DIMSOXD
 70
     0
  9
$DIMSAH
 70
     0
  9
$DIMBLK1
  1

  9
$DIMBLK2
  1

  9
$DIMSTYLE
  2
STANDARD
  9
$DIMCLRD
 70
     0
  9
$DIMCLRE
 70
     0
  9
$DIMCLRT
 70
     0
  9
$DIMTFAC
 40
0.75
  9
$DIMGAP
 40
1.5
  9
$LUNITS
 70
     2
  9
$LUPREC
 70
     4
  9
$SKETCHINC
 40
1.0
  9
$FILLETRAD
 40
0.0
  9
$AUNITS
 70
     0
  9
$AUPREC
 70
     4
  9
$MENU
  1
acad
  9
$ELEVATION
 40
0.0
  9
$PELEVATION
 40
0.0
  9
$THICKNESS
 40
0.0
  9
$LIMCHECK
 70
     0
  9
$BLIPMODE
 70
     0
  9
$CHAMFERA
 40
0.0
  9
$CHAMFERB
 40
0.0
  9
$SKPOLY
 70
     0
  9
$TDCREATE
 40
2449470.688965856
  9
$TDUPDATE
 40
2449470.688965856
  9
$TDINDWG
 40
0.0000000000
  9
$TDUSRTIMER
 40
0.0000000000
  9
$USRTIMER
 70
     1
  9
$ANGBASE
 50
0.0
  9
$ANGDIR
 70
     0
  9
$PDMODE
 70
     0
  9
$PDSIZE
 40
0.0
  9
$PLINEWID
 40
0.0
  9
$COORDS
 70
     1
  9
$SPLFRAME
 70
     0
  9
$SPLINETYPE
 70
     6
  9
$SPLINESEGS
 70
     8
  9
$ATTDIA
 70
     0
  9
$ATTREQ
 70
     1
  9
$HANDLING
 70
     0
  9
$HANDSEED
  5
0
  9
$SURFTAB1
 70
    18
  9
$SURFTAB2
 70
    18
  9
$SURFTYPE
 70
     6
  9
$SURFU
 70
    18
  9
$SURFV
 70
    18
  9
$UCSNAME
  2

  9
$UCSORG
 10
0.0
 20
0.0
 30
0.0
  9
$UCSXDIR
 10
1.0
 20
0.0
 30
0.0
  9
$UCSYDIR
 10
0.0
 20
1.0
 30
0.0
  9
$PUCSNAME
  2

  9
$PUCSORG
 10
0.0
 20
0.0
 30
0.0
  9
$PUCSXDIR
 10
1.0
 20
0.0
 30
0.0
  9
$PUCSYDIR
 10
0.0
 20
1.0
 30
0.0
  9
$USERI1
 70
     0
  9
$USERI2
 70
     0
  9
$USERI3
 70
     0
  9
$USERI4
 70
     0
  9
$USERI5
 70
     0
  9
$USERR1
 40
0.0
  9
$USERR2
 40
0.0
  9
$USERR3
 40
0.0
  9
$USERR4
 40
0.0
  9
$USERR5
 40
0.0
  9
$WORLDVIEW
 70
     1
  9
$SHADEDGE
 70
     3
  9
$SHADEDIF
 70
    70
  9
$TILEMODE
 70
     1
  9
$MAXACTVP
 70
    16
  9
$PINSBASE
 10
0.0
 20
0.0
 30
0.0
  9
$PLIMCHECK
 70
     0
  9
$PEXTMIN
 10
1.000000E+20
 20
1.000000E+20
 30
1.000000E+20
  9
$PEXTMAX
 10
-1.000000E+20
 20
-1.000000E+20
 30
-1.000000E+20
  9
$PLIMMIN
 10
0.0
 20
0.0
  9
$PLIMMAX
 10
420.0
 20
297.0
  9
$UNITMODE
 70
     0
  9
$VISRETAIN
 70
     0
  9
$PLINEGEN
 70
     0
  9
$PSLTSCALE
 70
     1
  9
$TREEDEPTH
 70
  3020
  9
$DWGCODEPAGE
  3
dos850
  0
ENDSEC
  0
SECTION
  2
TABLES
  0
TABLE
  2
VPORT
 70
     2
  0
VPORT
  2
*ACTIVE
 70
     0
 10
0.0
 20
0.0
 11
1.0
 21
1.0
 12
50
 22
50
 13
0.0
 23
0.0
 14
1.0
 24
1.0
 15
10.0
 25
10.0
 16
0.0
 26
0.0
 36
1.0
 17
0.0
 27
0.0
 37
0.0
 40
100.0
 41
1.387409
 42
50.0
 43
0.0
 44
0.0
 50
0.0
 51
0.0
 71
     0
 72
   100
 73
     1
 74
     1
 75
     0
 76
     0
 77
     0
 78
     0
  0
ENDTAB
  0
TABLE
  2
LTYPE
 70
     8
  0
LTYPE
  2
CONTINUOUS
 70
     0
  3
Solid line
 72
    65
 73
     0
 40
0.000000
  0
LTYPE
  2
HIDDEN
 70
     0
  3
_ _ _ _ _ _ _ _ _ _ _ _ _ _ _ _ _ _ _ _ _ _ _
 72
    65
 73
     2
 40
0.375000
 49
0.250000
 49
-0.125000
  0
LTYPE
  2
DOT
 70
     0
  3
...............................................
 72
    65
 73
     2
 40
0.250000
 49
0.000000
 49
-0.250000
  0
LTYPE
  2
DASHED
 70
     0
  3
__ __ __ __ __ __ __ __ __ __ __ __ __ __ __ 
 72
    65
 73
     2
 40
0.750000
 49
0.500000
 49
-0.250000
  0
LTYPE
  2
DASHDOT
 70
     0
  3
__ . __ . __ . __ . __ . __ . __ . __ . __ . __
 72
    65
 73
     4
 40
1.000000
 49
0.500000
 49
-0.250000
 49
0.000000
 49
-0.250000
  0
LTYPE
  2
BORDER
 70
     0
  3
__ __ . __ __ . __ __ . __ __ . __ __ . __ __
 72
    65
 73
     6
 40
1.750000
 49
0.500000
 49
-0.250000
 49
0.500000
 49
-0.250000
 49
0.000000
 49
-0.250000
  0
LTYPE
  2
CENTER
 70
     0
  3
____ _ ____ _ ____ _ ____ _ ____ _ ____ _ ____
 72
    65
 73
     4
 40
2.000000
 49
1.250000
 49
-0.250000
 49
0.250000
 49
-0.250000
  0
LTYPE
  2
DIVIDE
 70
     0
  3
__ . . __ . . __ . . __ . . __ . . __ . . __
 72
    65
 73
     6
 40
1.250000
 49
0.500000
 49
-0.250000
 49
0.000000
 49
-0.250000
 49
0.000000
 49
-0.250000
  0
ENDTAB
  0
TABLE
  2
LAYER
 70
     4
  0
LAYER
  2
0
 70
     0
 62
     7
  6
CONTINUOUS
  0
LAYER
  2
TEXT
 70
     0
 62
     7
  6
CONTINUOUS
  0
LAYER
  2
HATCH
 70
     0
 62
     7
  6
CONTINUOUS
  0
LAYER
  2
DIMENSION
 70
     0
 62
     7
  6
CONTINUOUS
  0
LAYER
  2
C
 70
     0
 62
     7
  6
CONTINUOUS
  0
LAYER
  2
KST
 70
     0
 62
     7
  6
CONTINUOUS
  0
ENDTAB
  0
TABLE
  2
STYLE
 70
     1
  0
STYLE
  2
STANDARD
 70
     0
 40
0.000000
 41
1.000000
 50
0.000000
 71
     0
 42
3.500000
  3
txt
  4

  0
ENDTAB
  0
TABLE
  2
DIMSTYLE
 70
     3
  0
DIMSTYLE
  2
CAD400-DIM0
 70
     0
  3

  4

  5

  6

  7

 40
1.000000
 41
3.700000
 42
0.010000
 43
0.000000
 44
0.800000
 45
0.000000
 46
0.000000
 47
0.000000
 48
0.000000
140
3.500000
141
0.000000
142
0.000000
143
25.400000
144
1.000000
145
0.000000
146
1.000000
147
0.090000
 71
     0
 72
     0
 73
     0
 74
     0
 75
     0
 76
     0
 77
     1
 78
     8
170
     0
171
     2
172
     1
173
     0
174
     0
175
     0
176
     3
177
     3
178
     4
  0
DIMSTYLE
  2
CAD400-DIM1
 70
     0
  3

  4

  5

  6

  7

 40
1.000000
 41
3.700000
 42
0.010000
 43
0.000000
 44
0.800000
 45
0.000000
 46
0.000000
 47
0.000000
 48
0.000000
140
3.499999
141
0.000000
142
0.000000
143
25.400000
144
1.000000
145
0.000000
146
1.000000
147
0.090000
 71
     0
 72
     0
 73
     0
 74
     0
 75
     0
 76
     0
 77
     1
 78
     8
170
     0
171
     2
172
     1
173
     0
174
     0
175
     0
176
     3
177
     3
178
     4
  0
DIMSTYLE
  2
CAD400-DIM2
 70
     0
  3
 Luft
  4

  5

  6

  7

 40
1.000000
 41
3.700000
 42
19.173000
 43
0.000000
 44
0.800000
 45
0.000000
 46
0.000000
 47
0.000000
 48
0.000000
140
3.500000
141
0.000000
142
0.000000
143
25.400000
144
1.000000
145
0.000000
146
1.000000
147
0.090000
 71
     0
 72
     0
 73
     0
 74
     0
 75
     0
 76
     0
 77
     1
 78
     8
170
     0
171
     2
172
     1
173
     0
174
     0
175
     0
176
     3
177
     3
178
     4
  0
ENDTAB
  0
TABLE
  2
VIEW
 70
     0
  0
ENDTAB
  0
TABLE
  2
UCS
 70
     0
  0
ENDTAB
  0
TABLE
  2
APPID
 70
     1
  0
APPID
  2
ACAD
 70
     0
  0
ENDTAB
  0
ENDSEC
  0
SECTION
  2
BLOCKS
  0
BLOCK
  8
DIMENSION
  2
*D0
 70
    65
 10
0.000000
 20
0.000000
 30
0.000000
  3
*D
  0
LINE
  8
DIMENSION
  6
BYBLOCK
 62
     3
 10
105.291557
 20
194.511175
 11
105.291557
 21
201.300000
  0
LINE
  8
DIMENSION
  6
BYBLOCK
 62
     3
 10
97.091557
 20
200.500000
 11
105.291557
 21
200.500000
  0
LINE
  8
DIMENSION
  6
BYBLOCK
 62
     3
 10
101.591557
 20
200.950000
 11
105.291557
 21
200.500000
  0
LINE
  8
DIMENSION
  6
BYBLOCK
 62
     3
 10
105.291557
 20
200.500000
 11
101.591557
 21
200.050000
  0
LINE
  8
DIMENSION
  6
BYBLOCK
 62
     3
 10
101.591557
 20
200.050000
 11
101.591557
 21
200.950000
  0
LINE
  8
DIMENSION
  6
BYBLOCK
 62
     3
 10
105.291557
 20
200.500000
 11
106.291557
 21
200.500000
  0
LINE
  8
DIMENSION
  6
BYBLOCK
 62
     3
 10
106.291557
 20
200.500000
 11
121.637500
 21
200.500000
  0
LINE
  8
DIMENSION
  6
BYBLOCK
 62
     3
 10
109.991557
 20
200.050000
 11
106.291557
 21
200.500000
  0
LINE
  8
DIMENSION
  6
BYBLOCK
 62
     3
 10
106.291557
 20
200.500000
 11
109.991557
 21
200.950000
  0
LINE
  8
DIMENSION
  6
BYBLOCK
 62
     3
 10
109.991557
 20
200.950000
 11
109.991557
 21
200.050000
  0
LINE
  8
DIMENSION
  6
BYBLOCK
 62
     3
 10
106.291557
 20
201.300000
 11
106.291557
 21
194.511175
  0
TEXT
  8
DIMENSION
 62
     4
 10
118.925000
 20
202.250000
 40
3.500000
  1
1
 50
0.000000
 41
0.672182
 51
0.000000
  7
STANDARD
 72
     5
 11
120.475000
 21
202.250000
 73
     0
  0
POINT
  8
DIMENSION
  6
BYBLOCK
 62
     9
 10
105.291557
 20
194.501175
  0
POINT
  8
DIMENSION
  6
BYBLOCK
 62
     9
 10
106.291557
 20
194.501175
  0
ENDBLK
  8
0
  0
BLOCK
  8
DIMENSION
  2
*D1
 70
    65
 10
0.000000
 20
0.000000
 30
0.000000
  3
*D
  0
LINE
  8
DIMENSION
  6
BYBLOCK
 62
     3
 10
106.301557
 20
180.501174
 11
132.500000
 21
180.501174
  0
LINE
  8
DIMENSION
  6
BYBLOCK
 62
     3
 10
131.700000
 20
172.301174
 11
131.700000
 21
180.501174
  0
LINE
  8
DIMENSION
  6
BYBLOCK
 62
     3
 10
131.250000
 20
176.801174
 11
131.700000
 21
180.501174
  0
LINE
  8
DIMENSION
  6
BYBLOCK
 62
     3
 10
131.700000
 20
180.501174
 11
132.150000
 21
176.801174
  0
LINE
  8
DIMENSION
  6
BYBLOCK
 62
     3
 10
132.150000
 20
176.801174
 11
131.250000
 21
176.801174
  0
LINE
  8
DIMENSION
  6
BYBLOCK
 62
     3
 10
131.700000
 20
180.501174
 11
131.700000
 21
194.501175
  0
LINE
  8
DIMENSION
  6
BYBLOCK
 62
     3
 10
131.700000
 20
194.501175
 11
131.700000
 21
207.600000
  0
LINE
  8
DIMENSION
  6
BYBLOCK
 62
     3
 10
132.150000
 20
198.201175
 11
131.700000
 21
194.501175
  0
LINE
  8
DIMENSION
  6
BYBLOCK
 62
     3
 10
131.700000
 20
194.501175
 11
131.250000
 21
198.201175
  0
LINE
  8
DIMENSION
  6
BYBLOCK
 62
     3
 10
131.250000
 20
198.201175
 11
132.150000
 21
198.201175
  0
LINE
  8
DIMENSION
  6
BYBLOCK
 62
     3
 10
132.500000
 20
194.501175
 11
106.301557
 21
194.501175
  0
TEXT
  8
DIMENSION
 62
     4
 10
129.950000
 20
202.562500
 40
3.500000
  1
14
 50
90.000000
 41
0.826226
 51
0.000000
  7
STANDARD
 72
     5
 11
129.950000
 21
206.437500
 73
     0
  0
POINT
  8
DIMENSION
  6
BYBLOCK
 62
     9
 10
106.291557
 20
180.501174
  0
POINT
  8
DIMENSION
  6
BYBLOCK
 62
     9
 10
106.291557
 20
194.501175
  0
ENDBLK
  8
0
  0
BLOCK
  8
C
  2
MEDCLUMP_SET_210_
 70
    66
 10
0.000000
 20
0.000000
 30
0.000000
  0
LINE
  8
C
  6
CONTINUOUS
 62
     3
 10
110.342396
 20
188.501192
 11
110.342396
 21
188.501192
  0
LINE
  8
C
  6
CONTINUOUS
 62
     3
 10
110.342396
 20
186.501199
 11
110.291552
 21
186.501199
  0
LINE
  8
C
  6
CONTINUOUS
 62
     3
 10
105.291556
 20
202.751155
 11
105.291556
 21
172.251193
  0
LINE
  8
C
  6
CONTINUOUS
 62
     3
 10
107.791556
 20
172.251193
 11
107.791556
 21
182.501199
  0
LINE
  8
C
  6
CONTINUOUS
 62
     3
 10
107.791556
 20
182.501199
 11
110.342396
 21
184.501199
  0
LINE
  8
C
  6
CONTINUOUS
 62
     3
 10
110.342396
 20
184.501199
 11
110.342396
 21
186.501199
  0
LINE
  8
C
  6
CONTINUOUS
 62
     3
 10
110.342396
 20
186.501199
 11
108.791552
 21
186.501199
  0
ARC
  8
C
  6
CONTINUOUS
 62
     3
 10
108.791560
 20
187.501185
 40
0.999991
 50
179.999564
 51
269.999530
  0
ARC
  8
C
  6
CONTINUOUS
 62
     3
 10
108.791552
 20
187.501179
 40
0.999983
 50
89.999095
 51
179.999191
  0
LINE
  8
C
  6
CONTINUOUS
 62
     3
 10
108.791568
 20
188.501160
 11
110.342396
 21
188.501160
  0
LINE
  8
C
  6
CONTINUOUS
 62
     3
 10
110.342396
 20
188.501160
 11
110.342396
 21
190.501192
  0
LINE
  8
C
  6
CONTINUOUS
 62
     3
 10
110.342396
 20
190.501192
 11
107.791556
 21
192.501192
  0
LINE
  8
C
  6
CONTINUOUS
 62
     3
 10
107.791556
 20
192.501192
 11
107.791556
 21
202.751155
  0
ARC
  8
C
  6
CONTINUOUS
 62
     3
 10
106.541554
 20
172.251189
 40
1.250000
 50
179.999816
 51
0.000184
  0
ARC
  8
C
  6
CONTINUOUS
 62
     3
 10
106.541554
 20
202.751157
 40
1.250000
 50
359.999909
 51
180.000091
  0
LINE
  8
C
  6
CONTINUOUS
 62
     4
 10
110.342396
 20
188.501192
 11
144.240730
 21
188.501225
  0
LINE
  8
C
  6
CONTINUOUS
 62
     4
 10
144.240730
 20
186.501232
 11
110.342396
 21
186.501199
  0
LINE
  8
C
  6
CONTINUOUS
 62
     3
 10
144.240729
 20
188.501225
 11
144.240729
 21
188.501225
  0
LINE
  8
C
  6
CONTINUOUS
 62
     3
 10
144.240729
 20
186.501233
 11
144.291573
 21
186.501233
  0
LINE
  8
C
  6
CONTINUOUS
 62
     3
 10
149.291569
 20
202.751188
 11
149.291569
 21
172.251227
  0
LINE
  8
C
  6
CONTINUOUS
 62
     3
 10
146.791569
 20
172.251227
 11
146.791569
 21
182.501233
  0
LINE
  8
C
  6
CONTINUOUS
 62
     3
 10
146.791569
 20
182.501233
 11
144.240729
 21
184.501233
  0
LINE
  8
C
  6
CONTINUOUS
 62
     3
 10
144.240729
 20
184.501233
 11
144.240729
 21
186.501233
  0
LINE
  8
C
  6
CONTINUOUS
 62
     3
 10
144.240729
 20
186.501233
 11
145.791573
 21
186.501233
  0
ARC
  8
C
  6
CONTINUOUS
 62
     3
 10
145.791566
 20
187.501219
 40
0.999991
 50
270.000402
 51
0.000409
  0
ARC
  8
C
  6
CONTINUOUS
 62
     3
 10
145.791574
 20
187.501212
 40
0.999983
 50
0.000782
 51
90.000973
  0
LINE
  8
C
  6
CONTINUOUS
 62
     3
 10
145.791557
 20
188.501193
 11
144.240729
 21
188.501193
  0
LINE
  8
C
  6
CONTINUOUS
 62
     3
 10
144.240729
 20
188.501193
 11
144.240729
 21
190.501225
  0
LINE
  8
C
  6
CONTINUOUS
 62
     3
 10
144.240729
 20
190.501225
 11
146.791569
 21
192.501225
  0
LINE
  8
C
  6
CONTINUOUS
 62
     3
 10
146.791569
 20
192.501225
 11
146.791569
 21
202.751188
  0
LINE
  8
C
  6
CONTINUOUS
 62
     3
 10
149.000553
 20
171.449448
 11
149.000553
 21
203.552967
  0
LINE
  8
C
  6
CONTINUOUS
 62
     3
 10
148.000553
 20
204.000515
 11
148.000553
 21
171.001900
  0
LINE
  8
C
  6
CONTINUOUS
 62
     3
 10
147.000553
 20
171.559284
 11
147.000553
 21
203.443131
  0
LINE
  8
C
  6
CONTINUOUS
 62
     3
 10
146.000557
 20
191.881045
 11
146.000557
 21
188.479129
  0
LINE
  8
C
  6
CONTINUOUS
 62
     3
 10
146.000557
 20
186.523327
 11
146.000557
 21
183.121471
  0
LINE
  8
C
  6
CONTINUOUS
 62
     3
 10
145.000557
 20
183.905529
 11
145.000557
 21
186.501233
  0
LINE
  8
C
  6
CONTINUOUS
 62
     3
 10
145.000557
 20
188.501225
 11
145.000557
 21
191.096989
  0
ARC
  8
C
  6
CONTINUOUS
 62
     3
 10
148.041572
 20
172.251222
 40
1.250000
 50
179.999792
 51
0.000208
  0
ARC
  8
C
  6
CONTINUOUS
 62
     3
 10
148.041572
 20
202.751190
 40
1.250000
 50
359.999888
 51
180.000112
  0
LINE
  8
C
  6
CONTINUOUS
 62
     3
 10
144.240729
 20
188.501225
 11
110.342395
 21
188.501258
  0
LINE
  8
C
  6
CONTINUOUS
 62
     3
 10
110.342395
 20
186.501266
 11
144.240729
 21
186.501233
  0
LINE
  8
C
  6
CONTINUOUS
 62
     3
 10
105.291556
 20
194.501176
 11
106.291556
 21
194.501176
  0
LINE
  8
C
  6
CONTINUOUS
 62
     3
 10
106.291556
 20
194.501176
 11
106.291556
 21
180.501175
  0
LINE
  8
C
  6
CONTINUOUS
 62
     3
 10
106.291556
 20
180.501175
 11
105.291556
 21
180.501175
  0
LINE
  8
HATCH
  6
CONTINUOUS
 62
     3
 10
105.791913
 20
180.501174
 11
106.291556
 21
181.000817
  0
LINE
  8
HATCH
  6
CONTINUOUS
 62
     3
 10
105.291556
 20
181.273610
 11
106.291556
 21
182.273609
  0
LINE
  8
HATCH
  6
CONTINUOUS
 62
     3
 10
105.291556
 20
182.546402
 11
106.291556
 21
183.546401
  0
LINE
  8
HATCH
  6
CONTINUOUS
 62
     3
 10
105.291556
 20
183.819194
 11
106.291556
 21
184.819194
  0
LINE
  8
HATCH
  6
CONTINUOUS
 62
     3
 10
105.291556
 20
185.091986
 11
106.291556
 21
186.091986
  0
LINE
  8
HATCH
  6
CONTINUOUS
 62
     3
 10
105.291556
 20
186.364778
 11
106.291556
 21
187.364779
  0
LINE
  8
HATCH
  6
CONTINUOUS
 62
     3
 10
105.291556
 20
187.637571
 11
106.291556
 21
188.637571
  0
LINE
  8
HATCH
  6
CONTINUOUS
 62
     3
 10
105.291556
 20
188.910363
 11
106.291556
 21
189.910363
  0
LINE
  8
HATCH
  6
CONTINUOUS
 62
     3
 10
105.291556
 20
190.183155
 11
106.291556
 21
191.183155
  0
LINE
  8
HATCH
  6
CONTINUOUS
 62
     3
 10
105.291556
 20
191.455947
 11
106.291556
 21
192.455948
  0
LINE
  8
HATCH
  6
CONTINUOUS
 62
     3
 10
105.291556
 20
192.728739
 11
106.291556
 21
193.728740
  0
LINE
  8
HATCH
  6
CONTINUOUS
 62
     3
 10
105.291556
 20
194.001532
 11
105.791201
 21
194.501176
  0
ENDBLK
  8
0
  0
BLOCK
  8
C
  2
MEDCLUMP_SET_210_-2
 70
    66
 10
0.000000
 20
0.000000
 30
0.000000
  0
LINE
  8
C
  6
CONTINUOUS
 62
     3
 10
84.240728
 20
188.501172
 11
84.240728
 21
188.501172
  0
LINE
  8
C
  6
CONTINUOUS
 62
     3
 10
84.240728
 20
186.501177
 11
84.291572
 21
186.501177
  0
LINE
  8
C
  6
CONTINUOUS
 62
     3
 10
89.291568
 20
202.751135
 11
89.291568
 21
172.251170
  0
LINE
  8
C
  6
CONTINUOUS
 62
     3
 10
86.791567
 20
172.251170
 11
86.791568
 21
182.501176
  0
LINE
  8
C
  6
CONTINUOUS
 62
     3
 10
86.791568
 20
182.501176
 11
84.240728
 21
184.501177
  0
LINE
  8
C
  6
CONTINUOUS
 62
     3
 10
84.240728
 20
184.501177
 11
84.240728
 21
186.501177
  0
LINE
  8
C
  6
CONTINUOUS
 62
     3
 10
84.240728
 20
186.501177
 11
85.791572
 21
186.501177
  0
ARC
  8
C
  6
CONTINUOUS
 62
     3
 10
85.791563
 20
187.501164
 40
0.999991
 50
270.000506
 51
0.000436
  0
ARC
  8
C
  6
CONTINUOUS
 62
     3
 10
85.791571
 20
187.501158
 40
0.999983
 50
0.000809
 51
90.000869
  0
LINE
  8
C
  6
CONTINUOUS
 62
     3
 10
85.791556
 20
188.501140
 11
84.240728
 21
188.501140
  0
LINE
  8
C
  6
CONTINUOUS
 62
     3
 10
84.240728
 20
188.501140
 11
84.240728
 21
190.501172
  0
LINE
  8
C
  6
CONTINUOUS
 62
     3
 10
84.240728
 20
190.501172
 11
86.791568
 21
192.501172
  0
LINE
  8
C
  6
CONTINUOUS
 62
     3
 10
86.791568
 20
192.501172
 11
86.791568
 21
202.751135
  0
LINE
  8
C
  6
CONTINUOUS
 62
     3
 10
89.000552
 20
171.449391
 11
89.000552
 21
203.552914
  0
LINE
  8
C
  6
CONTINUOUS
 62
     3
 10
88.000552
 20
204.000462
 11
88.000551
 21
171.001843
  0
LINE
  8
C
  6
CONTINUOUS
 62
     3
 10
87.000551
 20
171.559227
 11
87.000552
 21
203.443078
  0
LINE
  8
C
  6
CONTINUOUS
 62
     3
 10
86.000556
 20
191.880992
 11
86.000556
 21
188.479076
  0
LINE
  8
C
  6
CONTINUOUS
 62
     3
 10
86.000556
 20
186.523271
 11
86.000556
 21
183.121414
  0
LINE
  8
C
  6
CONTINUOUS
 62
     3
 10
85.000556
 20
183.905472
 11
85.000556
 21
186.501177
  0
LINE
  8
C
  6
CONTINUOUS
 62
     3
 10
85.000556
 20
188.501172
 11
85.000556
 21
191.096936
  0
ARC
  8
C
  6
CONTINUOUS
 62
     3
 10
88.041569
 20
172.251168
 40
1.250000
 50
179.999908
 51
0.000092
  0
ARC
  8
C
  6
CONTINUOUS
 62
     3
 10
88.041569
 20
202.751136
 40
1.250000
 50
359.999955
 51
180.000045
  0
LINE
  8
C
  6
CONTINUOUS
 62
     4
 10
84.240728
 20
188.501172
 11
50.342394
 21
188.501205
  0
LINE
  8
C
  6
CONTINUOUS
 62
     4
 10
50.342394
 20
186.501210
 11
84.240728
 21
186.501177
  0
LINE
  8
C
  6
CONTINUOUS
 62
     3
 10
50.342402
 20
188.501171
 11
50.342402
 21
188.501171
  0
LINE
  8
C
  6
CONTINUOUS
 62
     3
 10
50.342402
 20
186.501177
 11
50.291558
 21
186.501177
  0
LINE
  8
C
  6
CONTINUOUS
 62
     3
 10
45.291562
 20
202.751134
 11
45.291562
 21
172.251171
  0
LINE
  8
C
  6
CONTINUOUS
 62
     3
 10
47.791562
 20
172.251171
 11
47.791562
 21
182.501177
  0
LINE
  8
C
  6
CONTINUOUS
 62
     3
 10
47.791562
 20
182.501177
 11
50.342402
 21
184.501177
  0
LINE
  8
C
  6
CONTINUOUS
 62
     3
 10
50.342402
 20
184.501177
 11
50.342402
 21
186.501177
  0
LINE
  8
C
  6
CONTINUOUS
 62
     3
 10
50.342402
 20
186.501177
 11
48.791558
 21
186.501177
  0
ARC
  8
C
  6
CONTINUOUS
 62
     3
 10
48.791565
 20
187.501164
 40
0.999991
 50
179.999564
 51
269.999587
  0
ARC
  8
C
  6
CONTINUOUS
 62
     3
 10
48.791557
 20
187.501158
 40
0.999983
 50
89.999038
 51
179.999191
  0
LINE
  8
C
  6
CONTINUOUS
 62
     3
 10
48.791574
 20
188.501139
 11
50.342402
 21
188.501139
  0
LINE
  8
C
  6
CONTINUOUS
 62
     3
 10
50.342402
 20
188.501139
 11
50.342402
 21
190.501171
  0
LINE
  8
C
  6
CONTINUOUS
 62
     3
 10
50.342402
 20
190.501171
 11
47.791562
 21
192.501171
  0
LINE
  8
C
  6
CONTINUOUS
 62
     3
 10
47.791562
 20
192.501171
 11
47.791562
 21
202.751134
  0
LINE
  8
C
  6
CONTINUOUS
 62
     3
 10
45.582578
 20
171.449392
 11
45.582578
 21
203.552913
  0
LINE
  8
C
  6
CONTINUOUS
 62
     3
 10
46.582578
 20
204.000461
 11
46.582578
 21
171.001844
  0
LINE
  8
C
  6
CONTINUOUS
 62
     3
 10
47.582578
 20
171.559228
 11
47.582578
 21
203.443077
  0
LINE
  8
C
  6
CONTINUOUS
 62
     3
 10
48.582574
 20
191.880991
 11
48.582574
 21
188.479075
  0
LINE
  8
C
  6
CONTINUOUS
 62
     3
 10
48.582574
 20
186.523271
 11
48.582574
 21
183.121415
  0
LINE
  8
C
  6
CONTINUOUS
 62
     3
 10
49.582574
 20
183.905473
 11
49.582574
 21
186.501177
  0
LINE
  8
C
  6
CONTINUOUS
 62
     3
 10
49.582574
 20
188.501171
 11
49.582574
 21
191.096935
  0
ARC
  8
C
  6
CONTINUOUS
 62
     3
 10
46.541559
 20
172.251168
 40
1.250000
 50
179.999862
 51
0.000138
  0
ARC
  8
C
  6
CONTINUOUS
 62
     3
 10
46.541559
 20
202.751136
 40
1.250000
 50
359.999909
 51
180.000091
  0
LINE
  8
C
  6
CONTINUOUS
 62
     3
 10
50.342402
 20
188.501171
 11
84.240736
 21
188.501204
  0
LINE
  8
C
  6
CONTINUOUS
 62
     3
 10
84.240736
 20
186.501210
 11
50.342402
 21
186.501177
  0
ENDBLK
  8
0
  0
BLOCK
  8
C
  2
MEDCLUMP_SET_723_
 70
    66
 10
0.000000
 20
0.000000
 30
0.000000
  0
ARC
  8
C
  6
CONTINUOUS
 62
     4
 10
150.791537
 20
179.001182
 40
1.500021
 50
359.999570
 51
89.999850
  0
LINE
  8
C
  6
CONTINUOUS
 62
     4
 10
150.791541
 20
180.501201
 11
150.691535
 21
180.501201
  0
ARC
  8
C
  6
CONTINUOUS
 62
     4
 10
150.691575
 20
179.101186
 40
1.400017
 50
90.001633
 51
180.001685
  0
LINE
  8
C
  6
CONTINUOUS
 62
     4
 10
149.291555
 20
179.101145
 11
149.291555
 21
172.251171
  0
ARC
  8
C
  6
CONTINUOUS
 62
     4
 10
148.041567
 20
172.251194
 40
1.249991
 50
269.998813
 51
359.998936
  0
ARC
  8
C
  6
CONTINUOUS
 62
     4
 10
148.041535
 20
172.251180
 40
1.249977
 50
180.000422
 51
270.000274
  0
LINE
  8
C
  6
CONTINUOUS
 62
     4
 10
146.791555
 20
172.251171
 11
146.791555
 21
180.501171
  0
LINE
  8
C
  6
CONTINUOUS
 62
     4
 10
146.791555
 20
180.501171
 11
145.291549
 21
180.501171
  0
LINE
  8
C
  6
CONTINUOUS
 62
     4
 10
145.291549
 20
180.501171
 11
145.291549
 21
172.251171
  0
ARC
  8
C
  6
CONTINUOUS
 62
     4
 10
148.041531
 20
172.251182
 40
2.749979
 50
180.000231
 51
270.000210
  0
ARC
  8
C
  6
CONTINUOUS
 62
     4
 10
148.041565
 20
172.251190
 40
2.749987
 50
269.999500
 51
359.999602
  0
LINE
  8
C
  6
CONTINUOUS
 62
     4
 10
150.791549
 20
172.251171
 11
150.791549
 21
178.320261
  0
LINE
  8
C
  6
CONTINUOUS
 62
     4
 10
150.791549
 20
178.320261
 11
150.791549
 21
160.501177
  0
ARC
  8
C
  6
CONTINUOUS
 62
     4
 10
152.291547
 20
160.501168
 40
1.499995
 50
179.999657
 51
269.999777
  0
LINE
  8
C
  6
CONTINUOUS
 62
     4
 10
152.291541
 20
159.001177
 11
172.579657
 21
159.001177
  0
LINE
  8
C
  6
CONTINUOUS
 62
     4
 10
172.579657
 20
159.001177
 11
113.791561
 21
159.001177
  0
LINE
  8
C
  6
CONTINUOUS
 62
     4
 10
113.791561
 20
159.001177
 11
113.791561
 21
164.501177
  0
ARC
  8
C
  6
CONTINUOUS
 62
     4
 10
112.291559
 20
164.501174
 40
1.499999
 50
0.000105
 51
89.999926
  0
LINE
  8
C
  6
CONTINUOUS
 62
     4
 10
112.291561
 20
166.001177
 11
103.791561
 21
166.001177
  0
LINE
  8
C
  6
CONTINUOUS
 62
     4
 10
103.791561
 20
166.001177
 11
103.791561
 21
167.501161
  0
LINE
  8
C
  6
CONTINUOUS
 62
     4
 10
102.291561
 20
167.501161
 11
102.291561
 21
166.001177
  0
ARC
  8
C
  6
CONTINUOUS
 62
     4
 10
103.791557
 20
166.001172
 40
1.499999
 50
179.999810
 51
270.000159
  0
LINE
  8
C
  6
CONTINUOUS
 62
     4
 10
103.791561
 20
164.501177
 11
112.291561
 21
164.501177
  0
LINE
  8
C
  6
CONTINUOUS
 62
     4
 10
112.291561
 20
164.501177
 11
112.291561
 21
159.001177
  0
ARC
  8
C
  6
CONTINUOUS
 62
     4
 10
113.791557
 20
159.001172
 40
1.499999
 50
179.999810
 51
270.000159
  0
LINE
  8
C
  6
CONTINUOUS
 62
     4
 10
113.791561
 20
157.501178
 11
152.291541
 21
157.501178
  0
LINE
  8
C
  6
CONTINUOUS
 62
     4
 10
152.291541
 20
157.501178
 11
172.791541
 21
157.501178
  0
ARC
  8
C
  6
CONTINUOUS
 62
     4
 10
172.791545
 20
159.001172
 40
1.499999
 50
269.999844
 51
0.000190
  0
ARC
  8
C
  6
CONTINUOUS
 62
     4
 10
172.791545
 20
159.001174
 40
1.499999
 50
0.000105
 51
90.000156
  0
LINE
  8
C
  6
CONTINUOUS
 62
     4
 10
172.791541
 20
160.501177
 11
152.291541
 21
160.501177
  0
LINE
  8
C
  6
CONTINUOUS
 62
     4
 10
152.291541
 20
160.501177
 11
152.291555
 21
179.001171
  0
LINE
  8
C
  6
CONTINUOUS
 62
     4
 10
102.291558
 20
176.905009
 11
102.291560
 21
171.905019
  0
LINE
  8
C
  6
CONTINUOUS
 62
     4
 10
102.291560
 20
171.905019
 11
102.291561
 21
167.501193
  0
LINE
  8
C
  6
CONTINUOUS
 62
     4
 10
103.791542
 20
167.501193
 11
103.791542
 21
171.905019
  0
LINE
  8
C
  6
CONTINUOUS
 62
     4
 10
103.791542
 20
171.905019
 11
103.791542
 21
178.320345
  0
LINE
  8
C
  6
CONTINUOUS
 62
     4
 10
103.791542
 20
178.320345
 11
103.791542
 21
176.905009
  0
LINE
  8
C
  6
CONTINUOUS
 62
     4
 10
109.291556
 20
172.251187
 11
109.291556
 21
180.501192
  0
LINE
  8
C
  6
CONTINUOUS
 62
     4
 10
109.291556
 20
180.501192
 11
107.791526
 21
180.501192
  0
LINE
  8
C
  6
CONTINUOUS
 62
     4
 10
107.791526
 20
180.501192
 11
107.791556
 21
172.251213
  0
LINE
  8
C
  6
CONTINUOUS
 62
     4
 10
105.291532
 20
172.251187
 11
105.291534
 21
179.101229
  0
ARC
  8
C
  6
CONTINUOUS
 62
     4
 10
103.891564
 20
179.101227
 40
1.399967
 50
0.000074
 51
90.000082
  0
LINE
  8
C
  6
CONTINUOUS
 62
     4
 10
103.891562
 20
180.501192
 11
103.791556
 21
180.501192
  0
ARC
  8
C
  6
CONTINUOUS
 62
     4
 10
103.791552
 20
179.001195
 40
1.499999
 50
89.999841
 51
180.000086
  0
LINE
  8
C
  6
CONTINUOUS
 62
     4
 10
102.291556
 20
179.001193
 11
102.291558
 21
176.905009
  0
ARC
  8
C
  6
CONTINUOUS
 62
     4
 10
106.541533
 20
172.251183
 40
2.750021
 50
179.999923
 51
0.000077
  0
ARC
  8
C
  6
CONTINUOUS
 62
     4
 10
106.541541
 20
172.251206
 40
1.250012
 50
180.000870
 51
0.000322
  0
ENDBLK
  8
0
  0
BLOCK
  8
C
  2
MEDCLUMP_SET_1446_
 70
    66
 10
0.000000
 20
0.000000
 30
0.000000
  0
ARC
  8
C
  6
CONTINUOUS
 62
     4
 10
150.791559
 20
196.001172
 40
1.499999
 50
269.999883
 51
0.000228
  0
LINE
  8
C
  6
CONTINUOUS
 62
     4
 10
150.791556
 20
194.501178
 11
150.691550
 21
194.501178
  0
ARC
  8
C
  6
CONTINUOUS
 62
     4
 10
150.691547
 20
195.901138
 40
1.399965
 50
179.999922
 51
270.000127
  0
LINE
  8
C
  6
CONTINUOUS
 62
     4
 10
149.291580
 20
195.901140
 11
149.291580
 21
202.751178
  0
ARC
  8
C
  6
CONTINUOUS
 62
     4
 10
148.041571
 20
202.751162
 40
1.250011
 50
0.000730
 51
90.000682
  0
ARC
  8
C
  6
CONTINUOUS
 62
     4
 10
148.041573
 20
202.751190
 40
1.249983
 50
90.000780
 51
180.000553
  0
LINE
  8
C
  6
CONTINUOUS
 62
     4
 10
146.791588
 20
202.751178
 11
146.791588
 21
194.501178
  0
LINE
  8
C
  6
CONTINUOUS
 62
     4
 10
146.791588
 20
194.501178
 11
145.291556
 21
194.501178
  0
LINE
  8
C
  6
CONTINUOUS
 62
     4
 10
145.291556
 20
194.501178
 11
145.291556
 21
202.751178
  0
ARC
  8
C
  6
CONTINUOUS
 62
     4
 10
148.041571
 20
202.751190
 40
2.750013
 50
90.000310
 51
180.000254
  0
ARC
  8
C
  6
CONTINUOUS
 62
     4
 10
148.041553
 20
202.751182
 40
2.750021
 50
359.999913
 51
89.999938
  0
LINE
  8
C
  6
CONTINUOUS
 62
     4
 10
150.791572
 20
202.751178
 11
150.791572
 21
196.682024
  0
LINE
  8
C
  6
CONTINUOUS
 62
     4
 10
150.791572
 20
196.682024
 11
150.791572
 21
216.001173
  0
LINE
  8
C
  6
CONTINUOUS
 62
     4
 10
150.791572
 20
216.001173
 11
89.305508
 21
216.001173
  0
LINE
  8
C
  6
CONTINUOUS
 62
     4
 10
89.305508
 20
216.001173
 11
110.291560
 21
216.001173
  0
ARC
  8
C
  6
CONTINUOUS
 62
     4
 10
110.291561
 20
212.501176
 40
3.499997
 50
359.999955
 51
90.000009
  0
ARC
  8
C
  6
CONTINUOUS
 62
     4
 10
110.291576
 20
212.501186
 40
3.499982
 50
269.999745
 51
359.999795
  0
LINE
  8
C
  6
CONTINUOUS
 62
     4
 10
110.291560
 20
209.001203
 11
103.791592
 21
209.001203
  0
LINE
  8
C
  6
CONTINUOUS
 62
     4
 10
103.791592
 20
209.001203
 11
103.791592
 21
207.501157
  0
LINE
  8
C
  6
CONTINUOUS
 62
     4
 10
102.291560
 20
207.501157
 11
102.291560
 21
209.001173
  0
ARC
  8
C
  6
CONTINUOUS
 62
     4
 10
103.791587
 20
209.001204
 40
1.500029
 50
90.001025
 51
180.001194
  0
LINE
  8
C
  6
CONTINUOUS
 62
     4
 10
103.791560
 20
210.501233
 11
110.291592
 21
210.501233
  0
ARC
  8
C
  6
CONTINUOUS
 62
     4
 10
110.291621
 20
212.501202
 40
1.999969
 50
269.999156
 51
359.999179
  0
LINE
  8
C
  6
CONTINUOUS
 62
     4
 10
112.291592
 20
212.501173
 11
112.291592
 21
212.601147
  0
ARC
  8
C
  6
CONTINUOUS
 62
     4
 10
110.391581
 20
212.601165
 40
1.900009
 50
359.999471
 51
89.999499
  0
LINE
  8
C
  6
CONTINUOUS
 62
     4
 10
110.391598
 20
214.501173
 11
88.791560
 21
214.501173
  0
ARC
  8
C
  6
CONTINUOUS
 62
     4
 10
88.791557
 20
216.001172
 40
1.499999
 50
179.999963
 51
270.000121
  0
ARC
  8
C
  6
CONTINUOUS
 62
     4
 10
88.791572
 20
216.001189
 40
1.500014
 50
90.000452
 51
180.000621
  0
LINE
  8
C
  6
CONTINUOUS
 62
     4
 10
88.791560
 20
217.501203
 11
113.791560
 21
217.501203
  0
LINE
  8
C
  6
CONTINUOUS
 62
     4
 10
113.791560
 20
217.501203
 11
150.791556
 21
217.501203
  0
ARC
  8
C
  6
CONTINUOUS
 62
     4
 10
150.791525
 20
216.001176
 40
1.500027
 50
359.998653
 51
89.998819
  0
LINE
  8
C
  6
CONTINUOUS
 62
     4
 10
152.291550
 20
216.001141
 11
152.291556
 21
196.001178
  0
LINE
  8
C
  6
CONTINUOUS
 62
     4
 10
103.791568
 20
207.501157
 11
103.791567
 21
203.120323
  0
LINE
  8
C
  6
CONTINUOUS
 62
     4
 10
103.791565
 20
198.120317
 11
103.791563
 21
196.682107
  0
LINE
  8
C
  6
CONTINUOUS
 62
     4
 10
103.791563
 20
196.682107
 11
103.791567
 21
203.120323
  0
LINE
  8
C
  6
CONTINUOUS
 62
     4
 10
109.291555
 20
202.751161
 11
109.291563
 21
194.501199
  0
LINE
  8
C
  6
CONTINUOUS
 62
     4
 10
109.291563
 20
194.501199
 11
107.791555
 21
194.501199
  0
LINE
  8
C
  6
CONTINUOUS
 62
     4
 10
107.791555
 20
194.501199
 11
107.791555
 21
202.751161
  0
LINE
  8
C
  6
CONTINUOUS
 62
     4
 10
105.291555
 20
202.751161
 11
105.291555
 21
195.901223
  0
ARC
  8
C
  6
CONTINUOUS
 62
     4
 10
103.891537
 20
195.901178
 40
1.400016
 50
270.001637
 51
0.001838
  0
LINE
  8
C
  6
CONTINUOUS
 62
     4
 10
103.891577
 20
194.501167
 11
103.791571
 21
194.501167
  0
ARC
  8
C
  6
CONTINUOUS
 62
     4
 10
103.791576
 20
196.001185
 40
1.500023
 50
179.999466
 51
269.999815
  0
LINE
  8
C
  6
CONTINUOUS
 62
     4
 10
102.291555
 20
196.001199
 11
102.291557
 21
198.120317
  0
LINE
  8
C
  6
CONTINUOUS
 62
     4
 10
102.291557
 20
198.120317
 11
102.291559
 21
203.120323
  0
LINE
  8
C
  6
CONTINUOUS
 62
     4
 10
102.291559
 20
203.120323
 11
102.291560
 21
207.501157
  0
ARC
  8
C
  6
CONTINUOUS
 62
     4
 10
106.541578
 20
202.751185
 40
2.749975
 50
359.999499
 51
180.000501
  0
ARC
  8
C
  6
CONTINUOUS
 62
     4
 10
106.541553
 20
202.751157
 40
1.250006
 50
0.000201
 51
179.999799
  0
ENDBLK
  8
0
  0
BLOCK
  8
C
  2
MEDCLUMP_SET_2140_
 70
    66
 10
0.000000
 20
0.000000
 30
0.000000
  0
LINE
  8
C
  6
CONTINUOUS
 62
     4
 10
42.291562
 20
176.904987
 11
42.291564
 21
171.904997
  0
LINE
  8
C
  6
CONTINUOUS
 62
     4
 10
42.291564
 20
171.904997
 11
42.291565
 21
167.501171
  0
LINE
  8
C
  6
CONTINUOUS
 62
     4
 10
42.291565
 20
167.501171
 11
42.291568
 21
159.001207
  0
ARC
  8
C
  6
CONTINUOUS
 62
     4
 10
43.791592
 20
159.001167
 40
1.500026
 50
179.998473
 51
269.998784
  0
LINE
  8
C
  6
CONTINUOUS
 62
     4
 10
43.791560
 20
157.501145
 11
80.791556
 21
157.501145
  0
LINE
  8
C
  6
CONTINUOUS
 62
     4
 10
80.791556
 20
157.501145
 11
105.791556
 21
157.501145
  0
ARC
  8
C
  6
CONTINUOUS
 62
     4
 10
105.791543
 20
159.001156
 40
1.500015
 50
270.000494
 51
0.000801
  0
ARC
  8
C
  6
CONTINUOUS
 62
     4
 10
105.791559
 20
159.001174
 40
1.499999
 50
0.000105
 51
90.000117
  0
LINE
  8
C
  6
CONTINUOUS
 62
     4
 10
105.791556
 20
160.501177
 11
84.191520
 21
160.501177
  0
ARC
  8
C
  6
CONTINUOUS
 62
     4
 10
84.191536
 20
162.401181
 40
1.900008
 50
179.999388
 51
269.999532
  0
LINE
  8
C
  6
CONTINUOUS
 62
     4
 10
82.291526
 20
162.401201
 11
82.291526
 21
162.501177
  0
ARC
  8
C
  6
CONTINUOUS
 62
     4
 10
84.291495
 20
162.501144
 40
1.999968
 50
89.999125
 51
179.999044
  0
LINE
  8
C
  6
CONTINUOUS
 62
     4
 10
84.291526
 20
164.501115
 11
90.791556
 21
164.501115
  0
ARC
  8
C
  6
CONTINUOUS
 62
     4
 10
90.791528
 20
166.001141
 40
1.500030
 50
270.001067
 51
0.001374
  0
LINE
  8
C
  6
CONTINUOUS
 62
     4
 10
92.291556
 20
166.001177
 11
92.291556
 21
167.501171
  0
LINE
  8
C
  6
CONTINUOUS
 62
     4
 10
90.791526
 20
167.501171
 11
90.791526
 21
166.001145
  0
LINE
  8
C
  6
CONTINUOUS
 62
     4
 10
90.791526
 20
166.001145
 11
84.291556
 21
166.001145
  0
ARC
  8
C
  6
CONTINUOUS
 62
     4
 10
84.291539
 20
162.501160
 40
3.499981
 50
89.999727
 51
179.999718
  0
ARC
  8
C
  6
CONTINUOUS
 62
     4
 10
84.291555
 20
162.501171
 40
3.499997
 50
179.999894
 51
270.000011
  0
LINE
  8
C
  6
CONTINUOUS
 62
     4
 10
84.291556
 20
159.001177
 11
105.277610
 21
159.001177
  0
LINE
  8
C
  6
CONTINUOUS
 62
     4
 10
105.277610
 20
159.001177
 11
43.791546
 21
159.001177
  0
LINE
  8
C
  6
CONTINUOUS
 62
     4
 10
43.791546
 20
159.001177
 11
43.791546
 21
167.501171
  0
LINE
  8
C
  6
CONTINUOUS
 62
     4
 10
43.791546
 20
167.501171
 11
43.791546
 21
171.904997
  0
LINE
  8
C
  6
CONTINUOUS
 62
     4
 10
43.791546
 20
171.904997
 11
43.791546
 21
178.320323
  0
LINE
  8
C
  6
CONTINUOUS
 62
     4
 10
43.791546
 20
178.320323
 11
43.791546
 21
176.904987
  0
LINE
  8
C
  6
CONTINUOUS
 62
     4
 10
49.291560
 20
172.251165
 11
49.291560
 21
180.501170
  0
LINE
  8
C
  6
CONTINUOUS
 62
     4
 10
49.291560
 20
180.501170
 11
47.791530
 21
180.501170
  0
LINE
  8
C
  6
CONTINUOUS
 62
     4
 10
47.791530
 20
180.501170
 11
47.791560
 21
172.251191
  0
LINE
  8
C
  6
CONTINUOUS
 62
     4
 10
45.291536
 20
172.251165
 11
45.291538
 21
179.101207
  0
ARC
  8
C
  6
CONTINUOUS
 62
     4
 10
43.891569
 20
179.101206
 40
1.399967
 50
0.000033
 51
90.000123
  0
LINE
  8
C
  6
CONTINUOUS
 62
     4
 10
43.891566
 20
180.501170
 11
43.791560
 21
180.501170
  0
ARC
  8
C
  6
CONTINUOUS
 62
     4
 10
43.791557
 20
179.001174
 40
1.499999
 50
89.999879
 51
180.000125
  0
LINE
  8
C
  6
CONTINUOUS
 62
     4
 10
42.291560
 20
179.001171
 11
42.291562
 21
176.904987
  0
ARC
  8
C
  6
CONTINUOUS
 62
     4
 10
46.541538
 20
172.251162
 40
2.750021
 50
179.999943
 51
0.000057
  0
ARC
  8
C
  6
CONTINUOUS
 62
     4
 10
46.541546
 20
172.251185
 40
1.250012
 50
180.000916
 51
0.000276
  0
LINE
  8
C
  6
CONTINUOUS
 62
     4
 10
92.291567
 20
176.904987
 11
92.291565
 21
171.904997
  0
LINE
  8
C
  6
CONTINUOUS
 62
     4
 10
92.291565
 20
171.904997
 11
92.291564
 21
167.501171
  0
LINE
  8
C
  6
CONTINUOUS
 62
     4
 10
90.791582
 20
167.501171
 11
90.791583
 21
171.904997
  0
LINE
  8
C
  6
CONTINUOUS
 62
     4
 10
90.791583
 20
171.904997
 11
90.791583
 21
178.320323
  0
LINE
  8
C
  6
CONTINUOUS
 62
     4
 10
90.791583
 20
178.320323
 11
90.791583
 21
176.904987
  0
LINE
  8
C
  6
CONTINUOUS
 62
     4
 10
85.291569
 20
172.251165
 11
85.291569
 21
180.501170
  0
LINE
  8
C
  6
CONTINUOUS
 62
     4
 10
85.291569
 20
180.501170
 11
86.791599
 21
180.501169
  0
LINE
  8
C
  6
CONTINUOUS
 62
     4
 10
86.791599
 20
180.501169
 11
86.791569
 21
172.251191
  0
LINE
  8
C
  6
CONTINUOUS
 62
     4
 10
89.291593
 20
172.251165
 11
89.291591
 21
179.101207
  0
ARC
  8
C
  6
CONTINUOUS
 62
     4
 10
90.691559
 20
179.101206
 40
1.399967
 50
89.999852
 51
179.999967
  0
LINE
  8
C
  6
CONTINUOUS
 62
     4
 10
90.691563
 20
180.501169
 11
90.791569
 21
180.501169
  0
ARC
  8
C
  6
CONTINUOUS
 62
     4
 10
90.791572
 20
179.001174
 40
1.499999
 50
359.999875
 51
90.000097
  0
LINE
  8
C
  6
CONTINUOUS
 62
     4
 10
92.291569
 20
179.001171
 11
92.291567
 21
176.904987
  0
ARC
  8
C
  6
CONTINUOUS
 62
     4
 10
88.041591
 20
172.251162
 40
2.750021
 50
179.999943
 51
0.000057
  0
ARC
  8
C
  6
CONTINUOUS
 62
     4
 10
88.041582
 20
172.251185
 40
1.250012
 50
179.999724
 51
359.999084
  0
ENDBLK
  8
0
  0
BLOCK
  8
C
  2
B
 70
    66
 10
0.000000
 20
0.000000
 30
0.000000
  0
LINE
  8
C
  6
CONTINUOUS
 62
     4
 10
102.291566
 20
203.001176
 11
102.291566
 21
203.001176
  0
ENDBLK
  8
0
  0
BLOCK
  8
C
  2
B-2
 70
    66
 10
0.000000
 20
0.000000
 30
0.000000
  0
LINE
  8
C
  6
CONTINUOUS
 62
     4
 10
223.529207
 20
169.501166
 11
256.529249
 21
169.501168
  0
LINE
  8
C
  6
CONTINUOUS
 62
     4
 10
256.529249
 20
169.501168
 11
256.529249
 21
185.501168
  0
LINE
  8
C
  6
CONTINUOUS
 62
     4
 10
256.529249
 20
185.501168
 11
223.529207
 21
185.501166
  0
LINE
  8
C
  6
CONTINUOUS
 62
     3
 10
256.529249
 20
181.501168
 11
223.529207
 21
181.501166
  0
LINE
  8
C
  6
CONTINUOUS
 62
     3
 10
256.529249
 20
177.501168
 11
223.529207
 21
177.501166
  0
LINE
  8
C
  6
CONTINUOUS
 62
     3
 10
256.529249
 20
173.501168
 11
223.529207
 21
173.501166
  0
LINE
  8
C
  6
CONTINUOUS
 62
     4
 10
244.529249
 20
217.501161
 11
223.529207
 21
217.501161
  0
LINE
  8
C
  6
CONTINUOUS
 62
     4
 10
243.029249
 20
157.501169
 11
223.529207
 21
157.501169
  0
LINE
  8
C
  6
BORDER
 62
     3
 10
223.529206
 20
222.728305
 11
223.529206
 21
151.672426
  0
ENDBLK
  8
0
  0
BLOCK
  8
C
  2
B-3
 70
    66
 10
0.000000
 20
0.000000
 30
0.000000
  0
LINE
  8
C
  6
CONTINUOUS
 62
     4
 10
192.291564
 20
169.501166
 11
159.291522
 21
169.501168
  0
LINE
  8
C
  6
CONTINUOUS
 62
     4
 10
159.291522
 20
169.501168
 11
159.291522
 21
185.501168
  0
LINE
  8
C
  6
CONTINUOUS
 62
     4
 10
159.291522
 20
185.501168
 11
192.291564
 21
185.501166
  0
LINE
  8
C
  6
CONTINUOUS
 62
     3
 10
159.291522
 20
181.501168
 11
192.291564
 21
181.501166
  0
LINE
  8
C
  6
CONTINUOUS
 62
     3
 10
159.291522
 20
177.501168
 11
192.291564
 21
177.501166
  0
LINE
  8
C
  6
CONTINUOUS
 62
     3
 10
159.291522
 20
173.501168
 11
192.291564
 21
173.501166
  0
LINE
  8
C
  6
CONTINUOUS
 62
     4
 10
171.291522
 20
217.501161
 11
192.291564
 21
217.501161
  0
LINE
  8
C
  6
CONTINUOUS
 62
     4
 10
172.791522
 20
157.501169
 11
192.291564
 21
157.501169
  0
LINE
  8
C
  6
BORDER
 62
     3
 10
192.291565
 20
222.728305
 11
192.291565
 21
151.672426
  0
TEXT
  8
TEXT
 62
     4
 10
205.891567
 20
165.209301
 40
3.500000
  1
Jansen Janisol T30
 50
90.000000
 41
0.837547
 51
0.000000
  7
STANDARD
 72
     5
 11
205.891567
 21
211.584301
 73
     0
  0
TEXT
  8
TEXT
 62
     4
 10
212.191567
 20
165.209301
 40
3.500000
  1
einw%%132rts %%148ffnend
 50
90.000000
 41
0.810904
 51
0.000000
  7
STANDARD
 72
     5
 11
212.191567
 21
206.334301
 73
     0
  0
LINE
  8
TEXT
  6
CONTINUOUS
 62
     3
 10
213.591567
 20
165.209301
 11
213.591567
 21
211.584301
  0
ARC
  8
TEXT
  6
CONTINUOUS
 62
     3
 10
210.441567
 20
211.584301
 40
3.150000
 50
0.000000
 51
90.000000
  0
LINE
  8
TEXT
  6
CONTINUOUS
 62
     3
 10
210.441567
 20
214.734301
 11
204.141567
 21
214.734301
  0
ARC
  8
TEXT
  6
CONTINUOUS
 62
     3
 10
204.141567
 20
211.584301
 40
3.150000
 50
90.000000
 51
180.000000
  0
LINE
  8
TEXT
  6
CONTINUOUS
 62
     3
 10
200.991567
 20
211.584301
 11
200.991567
 21
165.209301
  0
ARC
  8
TEXT
  6
CONTINUOUS
 62
     3
 10
204.141567
 20
165.209301
 40
3.150000
 50
180.000000
 51
270.000000
  0
LINE
  8
TEXT
  6
CONTINUOUS
 62
     3
 10
204.141567
 20
162.059301
 11
210.441567
 21
162.059301
  0
ARC
  8
TEXT
  6
CONTINUOUS
 62
     3
 10
210.441567
 20
165.209301
 40
3.150000
 50
270.000000
 51
0.000000
  0
ENDBLK
  8
0
  0
BLOCK
  8
C
  2
MEDCLUMP_SET_2819_
 70
    66
 10
0.000000
 20
0.000000
 30
0.000000
  0
ARC
  8
C
  6
CONTINUOUS
 62
     4
 10
154.791506
 20
215.001173
 40
2.499990
 50
89.999727
 51
179.999886
  0
LINE
  8
C
  6
CONTINUOUS
 62
     4
 10
154.791518
 20
217.501162
 11
171.291514
 21
217.501162
  0
ARC
  8
C
  6
CONTINUOUS
 62
     4
 10
171.291525
 20
216.501172
 40
0.999991
 50
0.000350
 51
90.000613
  0
LINE
  8
C
  6
CONTINUOUS
 62
     4
 10
172.291514
 20
216.501178
 11
172.291514
 21
193.501183
  0
ARC
  8
C
  6
CONTINUOUS
 62
     4
 10
171.291517
 20
193.501178
 40
0.999999
 50
269.999845
 51
0.000264
  0
LINE
  8
C
  6
CONTINUOUS
 62
     4
 10
171.291514
 20
192.501183
 11
159.291518
 21
192.501183
  0
LINE
  8
C
  6
CONTINUOUS
 62
     4
 10
159.291518
 20
193.501183
 11
171.291514
 21
193.501183
  0
LINE
  8
C
  6
CONTINUOUS
 62
     4
 10
171.291514
 20
193.501183
 11
171.291514
 21
216.501146
  0
LINE
  8
C
  6
CONTINUOUS
 62
     4
 10
171.291514
 20
216.501146
 11
154.791534
 21
216.501146
  0
ARC
  8
C
  6
CONTINUOUS
 62
     4
 10
154.791519
 20
215.001168
 40
1.499979
 50
89.999421
 51
179.999628
  0
LINE
  8
C
  6
CONTINUOUS
 62
     4
 10
153.291542
 20
215.001178
 11
153.291534
 21
215.001178
  0
ARC
  8
C
  6
CONTINUOUS
 62
     4
 10
154.791531
 20
215.001178
 40
1.499999
 50
180.000001
 51
270.000121
  0
LINE
  8
C
  6
CONTINUOUS
 62
     4
 10
154.791534
 20
213.501178
 11
157.978850
 21
214.031328
  0
LINE
  8
C
  6
CONTINUOUS
 62
     4
 10
157.978850
 20
214.031328
 11
157.978850
 21
213.031328
  0
LINE
  8
C
  6
CONTINUOUS
 62
     4
 10
157.978850
 20
213.031328
 11
154.791518
 21
212.501178
  0
ARC
  8
C
  6
CONTINUOUS
 62
     4
 10
154.791522
 20
215.001169
 40
2.499990
 50
179.999800
 51
269.999906
  0
LINE
  8
C
  6
CONTINUOUS
 62
     4
 10
152.291534
 20
215.001178
 11
152.291518
 21
215.001178
  0
LINE
  8
C
  6
CONTINUOUS
 62
     4
 10
159.291517
 20
192.501183
 11
153.291506
 21
192.501183
  0
ARC
  8
C
  6
CONTINUOUS
 62
     4
 10
153.291517
 20
193.501164
 40
0.999985
 50
179.998934
 51
269.999358
  0
LINE
  8
C
  6
CONTINUOUS
 62
     4
 10
152.291534
 20
193.501183
 11
152.291534
 21
203.501182
  0
ARC
  8
C
  6
CONTINUOUS
 62
     4
 10
154.291514
 20
203.501165
 40
1.999983
 50
89.999440
 51
179.999502
  0
LINE
  8
C
  6
CONTINUOUS
 62
     4
 10
154.291534
 20
205.501146
 11
157.649961
 21
203.595176
  0
LINE
  8
C
  6
CONTINUOUS
 62
     4
 10
157.649961
 20
203.595176
 11
157.314833
 21
202.652976
  0
LINE
  8
C
  6
CONTINUOUS
 62
     4
 10
157.314833
 20
202.652976
 11
154.291534
 21
204.501182
  0
ARC
  8
C
  6
CONTINUOUS
 62
     4
 10
154.291535
 20
203.501184
 40
0.999995
 50
90.000069
 51
180.000108
  0
LINE
  8
C
  6
CONTINUOUS
 62
     4
 10
153.291542
 20
203.501182
 11
153.291542
 21
193.501183
  0
LINE
  8
C
  6
CONTINUOUS
 62
     4
 10
153.291542
 20
193.501183
 11
159.291517
 21
193.501183
  0
ENDBLK
  8
0
  0
BLOCK
  8
C
  2
B-4
 70
    66
 10
0.000000
 20
0.000000
 30
0.000000
  0
LINE
  8
C
  6
CONTINUOUS
 62
     7
 10
99.391549
 20
193.351156
 11
101.891544
 21
193.351155
  0
LINE
  8
C
  6
CONTINUOUS
 62
     7
 10
101.891544
 20
181.651192
 11
99.757228
 21
181.651192
  0
LINE
  8
C
  6
CONTINUOUS
 62
     7
 10
89.891554
 20
191.516840
 11
89.891554
 21
192.553460
  0
LINE
  8
C
  6
CONTINUOUS
 62
     7
 10
102.191544
 20
184.851193
 11
102.891542
 21
184.851191
  0
LINE
  8
C
  6
CONTINUOUS
 62
     7
 10
102.191544
 20
190.151156
 11
102.891542
 21
190.151155
  0
LINE
  8
C
  6
CONTINUOUS
 62
     7
 10
101.891544
 20
181.651192
 11
101.891544
 21
188.443655
  0
LINE
  8
C
  6
CONTINUOUS
 62
     7
 10
101.891544
 20
188.443655
 11
101.891544
 21
193.351155
  0
LINE
  8
C
  6
CONTINUOUS
 62
     7
 10
102.891542
 20
184.851192
 11
102.891542
 21
190.151155
  0
LINE
  8
C
  6
CONTINUOUS
 62
     7
 10
90.008712
 20
191.233997
 11
99.474385
 21
181.768349
  0
ARC
  8
C
  6
CONTINUOUS
 62
     7
 10
99.757237
 20
182.051173
 40
0.400000
 50
224.997222
 51
269.998752
  0
ARC
  8
C
  6
CONTINUOUS
 62
     7
 10
90.291552
 20
191.516852
 40
0.400000
 50
180.001755
 51
225.001555
  0
LINE
  8
C
  6
BORDER
 62
     3
 10
90.893617
 20
187.501174
 11
104.038416
 21
187.501174
  0
ARC
  8
C
  6
CONTINUOUS
 62
     7
 10
102.191552
 20
190.451169
 40
0.300000
 50
180.002529
 51
269.998397
  0
ARC
  8
C
  6
CONTINUOUS
 62
     7
 10
102.191552
 20
184.551173
 40
0.300000
 50
90.001603
 51
179.996227
  0
LINE
  8
C
  6
CONTINUOUS
 62
     7
 10
99.391549
 20
193.351156
 11
90.274106
 21
192.953079
  0
ARC
  8
C
  6
CONTINUOUS
 62
     7
 10
90.291552
 20
192.553473
 40
0.400000
 50
92.499814
 51
180.001800
  0
ENDBLK
  8
0
  0
BLOCK
  8
C
  2
B-5
 70
    66
 10
0.000000
 20
0.000000
 30
0.000000
  0
LINE
  8
C
  6
CONTINUOUS
 62
     7
 10
92.291574
 20
175.501177
 11
92.291574
 21
189.050921
  0
LINE
  8
C
  6
CONTINUOUS
 62
     7
 10
92.291574
 20
189.050921
 11
92.291574
 21
193.051156
  0
LINE
  8
C
  6
CONTINUOUS
 62
     7
 10
92.291574
 20
193.051156
 11
92.291572
 21
194.001167
  0
LINE
  8
C
  6
CONTINUOUS
 62
     7
 10
92.291572
 20
194.451168
 11
92.291574
 21
196.865296
  0
LINE
  8
C
  6
CONTINUOUS
 62
     7
 10
92.291574
 20
196.865296
 11
92.291574
 21
199.501169
  0
LINE
  8
C
  6
CONTINUOUS
 62
     7
 10
92.291574
 20
199.501169
 11
94.991568
 21
199.501169
  0
LINE
  8
C
  6
CONTINUOUS
 62
     7
 10
94.991568
 20
199.501169
 11
94.991568
 21
197.925271
  0
LINE
  8
C
  6
CONTINUOUS
 62
     7
 10
94.991568
 20
197.925271
 11
94.991568
 21
194.364941
  0
LINE
  8
C
  6
CONTINUOUS
 62
     7
 10
94.991568
 20
194.364941
 11
94.991568
 21
186.350932
  0
LINE
  8
C
  6
CONTINUOUS
 62
     7
 10
94.991568
 20
186.350932
 11
94.991568
 21
175.501177
  0
LINE
  8
C
  6
CONTINUOUS
 62
     7
 10
94.991568
 20
175.501177
 11
92.291574
 21
175.501177
  0
LINE
  8
C
  6
CONTINUOUS
 62
     7
 10
92.291574
 20
181.701177
 11
94.991568
 21
181.701176
  0
LINE
  8
HATCH
  6
CONTINUOUS
 62
     3
 10
92.291574
 20
175.708533
 11
92.498929
 21
175.501179
  0
LINE
  8
HATCH
  6
CONTINUOUS
 62
     3
 10
92.291575
 20
176.769193
 11
93.559589
 21
175.501179
  0
LINE
  8
HATCH
  6
CONTINUOUS
 62
     3
 10
92.291575
 20
177.829853
 11
94.620249
 21
175.501179
  0
LINE
  8
HATCH
  6
CONTINUOUS
 62
     3
 10
92.291575
 20
178.890513
 11
94.991565
 21
176.190523
  0
LINE
  8
HATCH
  6
CONTINUOUS
 62
     3
 10
92.291574
 20
179.951173
 11
94.991565
 21
177.251183
  0
LINE
  8
HATCH
  6
CONTINUOUS
 62
     3
 10
92.291574
 20
181.011834
 11
94.991565
 21
178.311843
  0
LINE
  8
HATCH
  6
CONTINUOUS
 62
     3
 10
92.662889
 20
181.701179
 11
94.991566
 21
179.372503
  0
LINE
  8
HATCH
  6
CONTINUOUS
 62
     3
 10
93.723550
 20
181.701179
 11
94.991566
 21
180.433163
  0
LINE
  8
HATCH
  6
CONTINUOUS
 62
     3
 10
94.784211
 20
181.701178
 11
94.991565
 21
181.493823
  0
ENDBLK
  8
0
  0
BLOCK
  8
C
  2
B-6
 70
    66
 10
0.000000
 20
0.000000
 30
0.000000
  0
LINE
  8
C
  6
CONTINUOUS
 62
     7
 10
86.924739
 20
192.174567
 11
87.338017
 21
191.827776
  0
LINE
  8
C
  6
CONTINUOUS
 62
     7
 10
86.924739
 20
192.327776
 11
87.338017
 21
192.674566
  0
ARC
  8
C
  6
CONTINUOUS
 62
     7
 10
86.989012
 20
192.251175
 40
0.100000
 50
129.998418
 51
230.003882
  0
LINE
  8
C
  6
CONTINUOUS
 62
     7
 10
84.889028
 20
194.751168
 11
84.889023
 21
193.834153
  0
LINE
  8
C
  6
CONTINUOUS
 62
     7
 10
84.889077
 20
186.568190
 11
84.889098
 21
183.617705
  0
ARC
  8
C
  6
CONTINUOUS
 62
     7
 10
85.389021
 20
194.751175
 40
0.500000
 50
89.999223
 51
180.000759
  0
ARC
  8
C
  6
CONTINUOUS
 62
     7
 10
87.889091
 20
183.617724
 40
3.000000
 50
180.000369
 51
250.000086
  0
LINE
  8
C
  6
CONTINUOUS
 62
     7
 10
87.546980
 20
182.678066
 11
91.962576
 21
181.070920
  0
ARC
  8
C
  6
CONTINUOUS
 62
     7
 10
91.791571
 20
180.601071
 40
0.500000
 50
0.000356
 51
70.000651
  0
LINE
  8
C
  6
CONTINUOUS
 62
     7
 10
92.291565
 20
194.451171
 11
92.291565
 21
194.270658
  0
LINE
  8
C
  6
CONTINUOUS
 62
     7
 10
92.291565
 20
194.270658
 11
92.291565
 21
194.001170
  0
LINE
  8
C
  6
CONTINUOUS
 62
     7
 10
92.291565
 20
194.001170
 11
92.291565
 21
193.051159
  0
LINE
  8
C
  6
CONTINUOUS
 62
     7
 10
92.291565
 20
193.051159
 11
92.291565
 21
189.050926
  0
LINE
  8
C
  6
CONTINUOUS
 62
     7
 10
92.291565
 20
189.050926
 11
92.291566
 21
178.951178
  0
ARC
  8
C
  6
CONTINUOUS
 62
     7
 10
91.491570
 20
194.451175
 40
0.800000
 50
359.999741
 51
90.000368
  0
LINE
  8
C
  6
CONTINUOUS
 62
     7
 10
86.863037
 20
180.798650
 11
90.291566
 21
179.550763
  0
LINE
  8
C
  6
CONTINUOUS
 62
     7
 10
90.291566
 20
178.451178
 11
91.791566
 21
178.451178
  0
ARC
  8
C
  6
CONTINUOUS
 62
     7
 10
91.791571
 20
178.951175
 40
0.500000
 50
269.999421
 51
0.000387
  0
LINE
  8
C
  6
CONTINUOUS
 62
     7
 10
91.491565
 20
195.251171
 11
87.141570
 21
195.251171
  0
LINE
  8
C
  6
CONTINUOUS
 62
     7
 10
87.141570
 20
195.251171
 11
85.389028
 21
195.251171
  0
LINE
  8
C
  6
CONTINUOUS
 62
     7
 10
86.889012
 20
183.617758
 11
86.889038
 21
194.751170
  0
ARC
  8
C
  6
CONTINUOUS
 62
     7
 10
86.389031
 20
194.751175
 40
0.500000
 50
359.999470
 51
89.999189
  0
ARC
  8
C
  6
CONTINUOUS
 62
     7
 10
87.889005
 20
183.617755
 40
1.000000
 50
179.999840
 51
249.999671
  0
LINE
  8
C
  6
CONTINUOUS
 62
     7
 10
90.291566
 20
178.451178
 11
90.291566
 21
179.550763
  0
LINE
  8
C
  6
CONTINUOUS
 62
     7
 10
86.924739
 20
194.174566
 11
87.338017
 21
193.827775
  0
LINE
  8
C
  6
CONTINUOUS
 62
     7
 10
86.924739
 20
194.327776
 11
87.338017
 21
194.674566
  0
ARC
  8
C
  6
CONTINUOUS
 62
     7
 10
86.989012
 20
194.251175
 40
0.100000
 50
129.998418
 51
230.003882
  0
ARC
  8
C
  6
CONTINUOUS
 62
     7
 10
87.273743
 20
193.751174
 40
0.100000
 50
309.996568
 51
50.000906
  0
LINE
  8
C
  6
CONTINUOUS
 62
     7
 10
86.924739
 20
189.174567
 11
87.338017
 21
188.827776
  0
LINE
  8
C
  6
CONTINUOUS
 62
     7
 10
86.924739
 20
189.327777
 11
87.338017
 21
189.674567
  0
ARC
  8
C
  6
CONTINUOUS
 62
     7
 10
86.989012
 20
189.251175
 40
0.100000
 50
129.998234
 51
230.003698
  0
LINE
  8
C
  6
CONTINUOUS
 62
     7
 10
86.924739
 20
187.327776
 11
87.338017
 21
187.674567
  0
ARC
  8
C
  6
CONTINUOUS
 62
     7
 10
86.989012
 20
187.251175
 40
0.100000
 50
129.998418
 51
180.001503
  0
ARC
  8
C
  6
CONTINUOUS
 62
     7
 10
87.273743
 20
192.751174
 40
0.100000
 50
309.996566
 51
50.000915
  0
LINE
  8
C
  6
CONTINUOUS
 62
     7
 10
86.924739
 20
191.174567
 11
87.338017
 21
190.827776
  0
LINE
  8
C
  6
CONTINUOUS
 62
     7
 10
86.924739
 20
191.327777
 11
87.338017
 21
191.674567
  0
ARC
  8
C
  6
CONTINUOUS
 62
     7
 10
86.989012
 20
191.251175
 40
0.100000
 50
129.998234
 51
230.003698
  0
LINE
  8
C
  6
CONTINUOUS
 62
     7
 10
86.833446
 20
195.251171
 11
87.338017
 21
194.827775
  0
ARC
  8
C
  6
CONTINUOUS
 62
     7
 10
87.273743
 20
194.751174
 40
0.100000
 50
309.996568
 51
50.000906
  0
LINE
  8
C
  6
CONTINUOUS
 62
     7
 10
86.924739
 20
193.174566
 11
87.338017
 21
192.827775
  0
LINE
  8
C
  6
CONTINUOUS
 62
     7
 10
86.924739
 20
193.327776
 11
87.338017
 21
193.674566
  0
ARC
  8
C
  6
CONTINUOUS
 62
     7
 10
86.989012
 20
193.251175
 40
0.100000
 50
129.998418
 51
230.003882
  0
LINE
  8
C
  6
CONTINUOUS
 62
     7
 10
86.924739
 20
190.174567
 11
87.338017
 21
189.827776
  0
LINE
  8
C
  6
CONTINUOUS
 62
     7
 10
86.924739
 20
190.327776
 11
87.338017
 21
190.674567
  0
ARC
  8
C
  6
CONTINUOUS
 62
     7
 10
86.989012
 20
190.251175
 40
0.100000
 50
129.998418
 51
230.003882
  0
LINE
  8
C
  6
CONTINUOUS
 62
     7
 10
86.924739
 20
188.174567
 11
87.338017
 21
187.827775
  0
LINE
  8
C
  6
CONTINUOUS
 62
     7
 10
86.924739
 20
188.327776
 11
87.338017
 21
188.674567
  0
ARC
  8
C
  6
CONTINUOUS
 62
     7
 10
86.989012
 20
188.251175
 40
0.100000
 50
129.998418
 51
230.003882
  0
ARC
  8
C
  6
CONTINUOUS
 62
     7
 10
87.273743
 20
187.751174
 40
0.100000
 50
309.996712
 51
50.001322
  0
ARC
  8
C
  6
CONTINUOUS
 62
     7
 10
87.273743
 20
188.751174
 40
0.100000
 50
309.996973
 51
50.001061
  0
ARC
  8
C
  6
CONTINUOUS
 62
     7
 10
87.273743
 20
189.751174
 40
0.100000
 50
309.996712
 51
50.001322
  0
ARC
  8
C
  6
CONTINUOUS
 62
     7
 10
87.273743
 20
190.751174
 40
0.100000
 50
309.996973
 51
50.001061
  0
ARC
  8
C
  6
CONTINUOUS
 62
     7
 10
87.273743
 20
191.751174
 40
0.100000
 50
309.996935
 51
50.000915
  0
ARC
  8
C
  6
CONTINUOUS
 62
     7
 10
83.391575
 20
187.870737
 40
0.499999
 50
180.000360
 51
255.001055
  0
LINE
  8
C
  6
CONTINUOUS
 62
     7
 10
84.518487
 20
187.051143
 11
83.262173
 21
187.387771
  0
ARC
  8
C
  6
CONTINUOUS
 62
     7
 10
84.389071
 20
186.568183
 40
0.500000
 50
0.000774
 51
74.999146
  0
LINE
  8
C
  6
CONTINUOUS
 62
     7
 10
82.891583
 20
187.870734
 11
82.891583
 21
192.531611
  0
LINE
  8
C
  6
BORDER
 62
     3
 10
81.891583
 20
190.201172
 11
89.091565
 21
190.201172
  0
ARC
  8
C
  6
CONTINUOUS
 62
     7
 10
83.391575
 20
192.531614
 40
0.499999
 50
104.999131
 51
180.000361
  0
LINE
  8
C
  6
CONTINUOUS
 62
     7
 10
84.518432
 20
193.351187
 11
83.262173
 21
193.014574
  0
ARC
  8
C
  6
CONTINUOUS
 62
     7
 10
84.389016
 20
193.834153
 40
0.500000
 50
285.000582
 51
0.000065
  0
LINE
  8
C
  6
CONTINUOUS
 62
     7
 10
90.073734
 20
185.341336
 11
90.073736
 21
182.108505
  0
ARC
  8
C
  6
CONTINUOUS
 62
     7
 10
90.573741
 20
182.108502
 40
0.500000
 50
179.999696
 51
249.999322
  0
ARC
  8
C
  6
CONTINUOUS
 62
     7
 10
86.973745
 20
183.792126
 40
3.500001
 50
28.955358
 51
54.619848
  0
LINE
  8
C
  6
CONTINUOUS
 62
     7
 10
87.189008
 20
186.701178
 11
88.826541
 21
186.701178
  0
ARC
  8
C
  6
CONTINUOUS
 62
     7
 10
87.189013
 20
187.001175
 40
0.300000
 50
180.000501
 51
269.999045
  0
ARC
  8
C
  6
CONTINUOUS
 62
     7
 10
89.773739
 20
185.341332
 40
0.300000
 50
0.000608
 51
28.956266
  0
ARC
  8
C
  6
CONTINUOUS
 62
     7
 10
88.826545
 20
186.401175
 40
0.300000
 50
54.620910
 51
90.000799
  0
LINE
  8
C
  6
CONTINUOUS
 62
     7
 10
82.891593
 20
188.376172
 11
86.464012
 21
188.376172
  0
LINE
  8
C
  6
CONTINUOUS
 62
     7
 10
86.464012
 20
188.376172
 11
86.464012
 21
192.026172
  0
LINE
  8
C
  6
CONTINUOUS
 62
     7
 10
86.889012
 20
187.951172
 11
86.464012
 21
188.376172
  0
LINE
  8
C
  6
CONTINUOUS
 62
     7
 10
82.891593
 20
192.026172
 11
86.464012
 21
192.026172
  0
LINE
  8
C
  6
CONTINUOUS
 62
     7
 10
86.464012
 20
192.026172
 11
86.889012
 21
192.451171
  0
LINE
  8
HATCH
  6
CONTINUOUS
 62
     3
 10
91.872440
 20
178.457764
 11
92.284983
 21
178.870307
  0
LINE
  8
HATCH
  6
CONTINUOUS
 62
     3
 10
91.158750
 20
178.451181
 11
92.291565
 21
179.583996
  0
LINE
  8
HATCH
  6
CONTINUOUS
 62
     3
 10
90.451643
 20
178.451181
 11
92.291565
 21
180.291103
  0
LINE
  8
HATCH
  6
CONTINUOUS
 62
     3
 10
90.291565
 20
178.998210
 11
92.192788
 21
180.899432
  0
LINE
  8
HATCH
  6
CONTINUOUS
 62
     3
 10
90.178256
 20
179.592008
 11
91.738668
 21
181.152419
  0
LINE
  8
HATCH
  6
CONTINUOUS
 62
     3
 10
89.659839
 20
179.780697
 11
91.220250
 21
181.341108
  0
LINE
  8
HATCH
  6
CONTINUOUS
 62
     3
 10
89.141421
 20
179.969386
 11
90.701832
 21
181.529796
  0
LINE
  8
HATCH
  6
CONTINUOUS
 62
     3
 10
88.623003
 20
180.158075
 11
90.183414
 21
181.718485
  0
LINE
  8
HATCH
  6
CONTINUOUS
 62
     3
 10
88.104586
 20
180.346764
 11
89.664995
 21
181.907174
  0
LINE
  8
HATCH
  6
CONTINUOUS
 62
     3
 10
87.586169
 20
180.535454
 11
89.146577
 21
182.095862
  0
LINE
  8
HATCH
  6
CONTINUOUS
 62
     3
 10
87.067751
 20
180.724143
 11
88.628160
 21
182.284552
  0
LINE
  8
HATCH
  6
CONTINUOUS
 62
     3
 10
86.563156
 20
180.926655
 11
88.109742
 21
182.473240
  0
LINE
  8
HATCH
  6
CONTINUOUS
 62
     3
 10
86.122460
 20
181.193065
 11
87.591323
 21
182.661929
  0
LINE
  8
HATCH
  6
CONTINUOUS
 62
     3
 10
85.743378
 20
181.521091
 11
87.157844
 21
182.935557
  0
LINE
  8
HATCH
  6
CONTINUOUS
 62
     3
 10
85.423649
 20
181.908469
 11
86.913404
 21
183.398223
  0
LINE
  8
HATCH
  6
CONTINUOUS
 62
     3
 10
85.166297
 20
182.358222
 11
86.889013
 21
184.080939
  0
LINE
  8
HATCH
  6
CONTINUOUS
 62
     3
 10
84.981168
 20
182.880201
 11
86.889015
 21
184.788047
  0
LINE
  8
HATCH
  6
CONTINUOUS
 62
     3
 10
84.891502
 20
183.497642
 11
86.889016
 21
185.495155
  0
LINE
  8
HATCH
  6
CONTINUOUS
 62
     3
 10
84.889094
 20
184.202340
 11
86.889017
 21
186.202263
  0
LINE
  8
HATCH
  6
CONTINUOUS
 62
     3
 10
84.889089
 20
184.909442
 11
86.889020
 21
186.909372
  0
LINE
  8
HATCH
  6
CONTINUOUS
 62
     3
 10
84.889084
 20
185.616544
 11
86.889015
 21
187.616475
  0
LINE
  8
HATCH
  6
CONTINUOUS
 62
     3
 10
84.889078
 20
186.323645
 11
86.702809
 21
188.137375
  0
LINE
  8
HATCH
  6
CONTINUOUS
 62
     3
 10
84.760847
 20
186.902520
 11
86.234499
 21
188.376172
  0
LINE
  8
HATCH
  6
CONTINUOUS
 62
     3
 10
84.269168
 20
187.117948
 11
85.527392
 21
188.376172
  0
LINE
  8
HATCH
  6
CONTINUOUS
 62
     3
 10
83.711490
 20
187.267377
 11
84.820286
 21
188.376172
  0
LINE
  8
HATCH
  6
CONTINUOUS
 62
     3
 10
83.163038
 20
187.426031
 11
84.113178
 21
188.376171
  0
LINE
  8
HATCH
  6
CONTINUOUS
 62
     3
 10
82.891662
 20
187.861763
 11
83.406071
 21
188.376171
  0
LINE
  8
HATCH
  6
CONTINUOUS
 62
     3
 10
86.348966
 20
192.026172
 11
86.889015
 21
192.566222
  0
LINE
  8
HATCH
  6
CONTINUOUS
 62
     3
 10
85.641859
 20
192.026172
 11
86.889034
 21
193.273347
  0
LINE
  8
HATCH
  6
CONTINUOUS
 62
     3
 10
84.934752
 20
192.026172
 11
86.889036
 21
193.980456
  0
LINE
  8
HATCH
  6
CONTINUOUS
 62
     3
 10
84.227645
 20
192.026172
 11
86.889038
 21
194.687565
  0
LINE
  8
HATCH
  6
CONTINUOUS
 62
     3
 10
83.520538
 20
192.026172
 11
86.663488
 21
195.169122
  0
LINE
  8
HATCH
  6
CONTINUOUS
 62
     3
 10
82.891592
 20
192.104333
 11
83.999362
 21
193.212102
  0
LINE
  8
HATCH
  6
CONTINUOUS
 62
     3
 10
84.889024
 20
194.101765
 11
86.038431
 21
195.251171
  0
LINE
  8
HATCH
  6
CONTINUOUS
 62
     3
 10
84.892821
 20
194.812668
 11
85.327528
 21
195.247375
  0
ENDBLK
  8
0
  0
BLOCK
  8
C
  2
B-7
 70
    66
 10
0.000000
 20
0.000000
 30
0.000000
  0
LINE
  8
C
  6
CONTINUOUS
 62
     7
 10
87.591576
 20
184.251283
 11
87.591576
 21
184.651952
  0
LINE
  8
C
  6
CONTINUOUS
 62
     7
 10
87.591576
 20
184.651952
 11
87.591576
 21
185.201178
  0
LINE
  8
C
  6
CONTINUOUS
 62
     7
 10
87.591576
 20
185.201178
 11
87.591576
 21
185.750404
  0
LINE
  8
C
  6
CONTINUOUS
 62
     7
 10
87.591576
 20
185.750404
 11
87.591576
 21
186.651952
  0
LINE
  8
C
  6
CONTINUOUS
 62
     7
 10
87.591576
 20
186.651952
 11
87.591576
 21
186.701176
  0
LINE
  8
C
  6
CONTINUOUS
 62
     7
 10
87.591576
 20
186.701176
 11
87.591576
 21
188.651953
  0
LINE
  8
C
  6
CONTINUOUS
 62
     7
 10
87.591576
 20
189.750405
 11
87.591576
 21
190.651953
  0
LINE
  8
C
  6
CONTINUOUS
 62
     7
 10
87.591576
 20
191.750394
 11
87.591576
 21
192.651943
  0
LINE
  8
C
  6
CONTINUOUS
 62
     7
 10
87.591576
 20
193.750394
 11
87.591576
 21
194.651943
  0
LINE
  8
C
  6
CONTINUOUS
 62
     7
 10
87.591576
 20
195.750394
 11
87.591576
 21
195.911462
  0
ARC
  8
C
  6
CONTINUOUS
 62
     7
 10
87.891571
 20
195.911469
 40
0.300000
 50
91.999214
 51
180.001422
  0
ARC
  8
C
  6
CONTINUOUS
 62
     7
 10
88.091571
 20
184.251280
 40
0.500000
 50
179.999639
 51
250.000360
  0
LINE
  8
C
  6
CONTINUOUS
 62
     7
 10
94.991566
 20
200.101168
 11
95.526464
 21
200.082489
  0
LINE
  8
C
  6
CONTINUOUS
 62
     7
 10
96.491565
 20
199.083098
 11
96.491560
 21
194.700069
  0
ARC
  8
C
  6
CONTINUOUS
 62
     7
 10
94.491565
 20
194.700076
 40
2.000000
 50
342.999850
 51
359.999809
  0
ARC
  8
C
  6
CONTINUOUS
 62
     7
 10
95.491567
 20
195.383018
 40
1.000000
 50
271.999672
 51
359.999515
  0
ARC
  8
C
  6
CONTINUOUS
 62
     7
 10
95.491571
 20
199.083106
 40
1.000000
 50
359.999540
 51
88.000343
  0
LINE
  8
C
  6
CONTINUOUS
 62
     7
 10
91.191576
 20
182.801179
 11
90.591576
 21
182.801179
  0
ARC
  8
C
  6
CONTINUOUS
 62
     7
 10
90.591571
 20
183.101176
 40
0.300000
 50
226.114312
 51
270.000866
  0
ARC
  8
C
  6
CONTINUOUS
 62
     7
 10
90.591571
 20
183.101176
 40
0.300000
 50
179.999443
 51
226.114312
  0
LINE
  8
C
  6
CONTINUOUS
 62
     7
 10
90.191572
 20
193.714476
 11
90.191575
 21
189.108286
  0
ARC
  8
C
  6
CONTINUOUS
 62
     7
 10
90.691571
 20
189.108283
 40
0.500000
 50
179.999676
 51
225.000083
  0
LINE
  8
C
  6
CONTINUOUS
 62
     7
 10
90.338022
 20
188.754733
 11
91.545129
 21
187.547626
  0
ARC
  8
C
  6
CONTINUOUS
 62
     7
 10
91.191571
 20
187.194070
 40
0.500000
 50
0.000286
 51
44.999900
  0
LINE
  8
C
  6
CONTINUOUS
 62
     7
 10
91.691564
 20
192.801169
 11
91.691565
 21
189.650928
  0
LINE
  8
C
  6
CONTINUOUS
 62
     7
 10
91.691565
 20
189.650928
 11
91.691566
 21
183.301179
  0
ARC
  8
C
  6
CONTINUOUS
 62
     7
 10
91.191571
 20
183.301176
 40
0.500000
 50
270.000520
 51
0.000334
  0
LINE
  8
C
  6
CONTINUOUS
 62
     7
 10
90.791576
 20
183.901179
 11
90.791576
 21
184.801179
  0
ARC
  8
C
  6
CONTINUOUS
 62
     7
 10
87.091571
 20
184.801176
 40
3.700000
 50
0.000045
 51
82.233501
  0
LINE
  8
C
  6
CONTINUOUS
 62
     7
 10
87.881106
 20
196.711279
 11
94.026465
 21
196.925880
  0
ARC
  8
C
  6
CONTINUOUS
 62
     7
 10
93.991571
 20
197.925278
 40
1.000000
 50
271.999644
 51
359.999577
  0
LINE
  8
C
  6
CONTINUOUS
 62
     7
 10
94.991566
 20
197.925271
 11
94.991566
 21
200.101168
  0
LINE
  8
C
  6
CONTINUOUS
 62
     7
 10
90.291576
 20
183.101179
 11
90.291576
 21
183.501179
  0
ARC
  8
C
  6
CONTINUOUS
 62
     7
 10
90.591571
 20
183.501176
 40
0.300000
 50
89.999134
 51
179.999443
  0
LINE
  8
C
  6
CONTINUOUS
 62
     7
 10
90.591576
 20
183.801179
 11
90.691576
 21
183.801179
  0
ARC
  8
C
  6
CONTINUOUS
 62
     7
 10
90.691571
 20
183.901176
 40
0.100000
 50
270.002599
 51
0.001671
  0
LINE
  8
C
  6
CONTINUOUS
 62
     7
 10
90.383608
 20
182.884962
 11
90.073741
 21
182.997742
  0
LINE
  8
C
  6
CONTINUOUS
 62
     7
 10
90.073741
 20
182.997742
 11
89.291566
 21
183.282432
  0
LINE
  8
C
  6
CONTINUOUS
 62
     7
 10
89.291566
 20
183.282432
 11
87.920566
 21
183.781437
  0
LINE
  8
C
  6
BORDER
 62
     3
 10
86.641576
 20
195.201168
 11
87.871330
 21
195.201169
  0
LINE
  8
C
  6
BORDER
 62
     3
 10
86.641576
 20
193.201168
 11
87.871330
 21
193.201169
  0
LINE
  8
C
  6
BORDER
 62
     3
 10
86.641576
 20
191.201179
 11
87.871330
 21
191.201179
  0
LINE
  8
C
  6
BORDER
 62
     3
 10
86.641576
 20
189.201179
 11
87.871330
 21
189.201179
  0
LINE
  8
C
  6
BORDER
 62
     3
 10
86.641576
 20
187.201179
 11
88.091576
 21
187.201179
  0
LINE
  8
C
  6
BORDER
 62
     3
 10
86.641576
 20
185.201179
 11
88.091576
 21
185.201179
  0
LINE
  8
C
  6
CONTINUOUS
 62
     7
 10
87.555855
 20
194.728547
 11
87.159437
 21
195.061182
  0
ARC
  8
C
  6
CONTINUOUS
 62
     7
 10
87.191572
 20
195.099492
 40
0.050000
 50
180.008644
 51
230.009350
  0
ARC
  8
C
  6
CONTINUOUS
 62
     7
 10
87.491571
 20
194.651951
 40
0.100000
 50
359.995517
 51
49.994859
  0
LINE
  8
C
  6
CONTINUOUS
 62
     7
 10
87.141576
 20
195.099484
 11
87.141576
 21
195.302853
  0
ARC
  8
C
  6
CONTINUOUS
 62
     7
 10
87.191571
 20
195.302861
 40
0.050000
 50
130.002118
 51
180.008932
  0
LINE
  8
C
  6
CONTINUOUS
 62
     7
 10
87.159436
 20
195.341155
 11
87.555854
 21
195.673790
  0
ARC
  8
C
  6
CONTINUOUS
 62
     7
 10
87.491571
 20
195.750402
 40
0.100000
 50
309.998922
 51
359.995491
  0
LINE
  8
C
  6
CONTINUOUS
 62
     7
 10
87.555855
 20
192.728547
 11
87.159437
 21
193.061182
  0
ARC
  8
C
  6
CONTINUOUS
 62
     7
 10
87.491571
 20
192.651951
 40
0.100000
 50
359.995517
 51
49.994859
  0
LINE
  8
C
  6
CONTINUOUS
 62
     7
 10
87.141576
 20
193.099484
 11
87.141576
 21
193.302853
  0
ARC
  8
C
  6
CONTINUOUS
 62
     7
 10
87.191571
 20
193.302861
 40
0.050000
 50
130.002118
 51
180.008932
  0
ARC
  8
C
  6
CONTINUOUS
 62
     7
 10
87.191572
 20
193.099492
 40
0.050000
 50
180.008644
 51
230.009350
  0
LINE
  8
C
  6
CONTINUOUS
 62
     7
 10
87.159436
 20
193.341155
 11
87.555854
 21
193.673790
  0
ARC
  8
C
  6
CONTINUOUS
 62
     7
 10
87.491571
 20
193.750402
 40
0.100000
 50
309.998922
 51
359.995491
  0
LINE
  8
C
  6
CONTINUOUS
 62
     7
 10
87.555855
 20
190.728558
 11
87.159437
 21
191.061192
  0
ARC
  8
C
  6
CONTINUOUS
 62
     7
 10
87.491571
 20
190.651951
 40
0.100000
 50
0.001246
 51
49.998910
  0
LINE
  8
C
  6
CONTINUOUS
 62
     7
 10
87.141576
 20
191.099494
 11
87.141576
 21
191.302863
  0
ARC
  8
C
  6
CONTINUOUS
 62
     7
 10
87.191571
 20
191.302861
 40
0.050000
 50
129.994015
 51
179.997471
  0
ARC
  8
C
  6
CONTINUOUS
 62
     7
 10
87.191572
 20
191.099492
 40
0.050000
 50
179.997184
 51
230.001985
  0
LINE
  8
C
  6
CONTINUOUS
 62
     7
 10
87.159436
 20
191.341166
 11
87.555854
 21
191.673790
  0
ARC
  8
C
  6
CONTINUOUS
 62
     7
 10
87.491571
 20
191.750402
 40
0.100000
 50
309.998922
 51
359.995491
  0
LINE
  8
C
  6
CONTINUOUS
 62
     7
 10
87.555855
 20
188.728558
 11
87.159437
 21
189.061192
  0
ARC
  8
C
  6
CONTINUOUS
 62
     7
 10
87.491571
 20
188.651951
 40
0.100000
 50
0.001246
 51
49.998910
  0
LINE
  8
C
  6
CONTINUOUS
 62
     7
 10
87.141576
 20
189.099494
 11
87.141576
 21
189.302863
  0
ARC
  8
C
  6
CONTINUOUS
 62
     7
 10
87.191572
 20
189.099492
 40
0.050000
 50
179.997184
 51
230.001985
  0
LINE
  8
C
  6
CONTINUOUS
 62
     7
 10
87.159436
 20
189.341166
 11
87.555854
 21
189.673800
  0
ARC
  8
C
  6
CONTINUOUS
 62
     7
 10
87.191571
 20
189.302861
 40
0.050000
 50
129.994015
 51
179.997471
  0
ARC
  8
C
  6
CONTINUOUS
 62
     7
 10
87.491571
 20
189.750402
 40
0.100000
 50
310.002605
 51
0.001793
  0
LINE
  8
C
  6
CONTINUOUS
 62
     7
 10
87.555855
 20
186.728558
 11
87.159437
 21
187.061192
  0
ARC
  8
C
  6
CONTINUOUS
 62
     7
 10
87.491571
 20
186.651951
 40
0.100000
 50
29.487210
 51
49.998910
  0
ARC
  8
C
  6
CONTINUOUS
 62
     7
 10
87.491571
 20
186.651951
 40
0.100000
 50
0.001246
 51
29.487210
  0
LINE
  8
C
  6
CONTINUOUS
 62
     7
 10
87.141576
 20
187.099494
 11
87.141576
 21
187.302863
  0
ARC
  8
C
  6
CONTINUOUS
 62
     7
 10
87.191572
 20
187.099492
 40
0.050000
 50
179.997184
 51
230.001985
  0
LINE
  8
C
  6
CONTINUOUS
 62
     7
 10
87.159436
 20
187.341166
 11
87.555854
 21
187.673800
  0
ARC
  8
C
  6
CONTINUOUS
 62
     7
 10
87.191571
 20
187.302861
 40
0.050000
 50
129.994015
 51
179.997471
  0
ARC
  8
C
  6
CONTINUOUS
 62
     7
 10
87.491571
 20
187.750402
 40
0.100000
 50
310.002605
 51
0.001793
  0
LINE
  8
C
  6
CONTINUOUS
 62
     7
 10
87.555855
 20
184.728558
 11
87.159437
 21
185.061192
  0
ARC
  8
C
  6
CONTINUOUS
 62
     7
 10
87.491571
 20
184.651951
 40
0.100000
 50
0.001246
 51
49.998910
  0
LINE
  8
C
  6
CONTINUOUS
 62
     7
 10
87.141576
 20
185.099494
 11
87.141576
 21
185.201178
  0
LINE
  8
C
  6
CONTINUOUS
 62
     7
 10
87.141576
 20
185.201178
 11
87.141576
 21
185.302863
  0
ARC
  8
C
  6
CONTINUOUS
 62
     7
 10
87.191572
 20
185.099492
 40
0.050000
 50
179.997184
 51
230.001985
  0
LINE
  8
C
  6
CONTINUOUS
 62
     7
 10
87.159436
 20
185.341166
 11
87.555854
 21
185.673800
  0
ARC
  8
C
  6
CONTINUOUS
 62
     7
 10
87.191571
 20
185.302861
 40
0.050000
 50
129.994015
 51
179.997471
  0
ARC
  8
C
  6
CONTINUOUS
 62
     7
 10
87.491571
 20
185.750402
 40
0.100000
 50
310.002605
 51
0.001793
  0
LINE
  8
C
  6
CONTINUOUS
 62
     7
 10
90.674122
 20
194.214172
 11
95.526461
 21
194.383620
  0
ARC
  8
C
  6
CONTINUOUS
 62
     7
 10
90.691568
 20
193.714484
 40
0.500000
 50
91.999567
 51
180.000969
  0
ARC
  8
C
  6
CONTINUOUS
 62
     7
 10
93.191571
 20
192.801177
 40
1.500000
 50
90.000201
 51
170.406750
  0
ARC
  8
C
  6
CONTINUOUS
 62
     7
 10
93.191571
 20
192.801177
 40
1.500000
 50
170.406750
 51
180.000305
  0
LINE
  8
C
  6
CONTINUOUS
 62
     7
 10
87.881106
 20
196.711279
 11
87.881106
 21
196.211279
  0
LINE
  8
C
  6
CONTINUOUS
 62
     7
 10
96.404170
 20
194.115328
 11
96.078820
 21
193.051156
  0
LINE
  8
C
  6
CONTINUOUS
 62
     7
 10
96.078820
 20
193.051156
 11
95.218607
 21
190.237532
  0
LINE
  8
C
  6
CONTINUOUS
 62
     7
 10
94.349458
 20
189.533709
 11
92.147987
 21
189.341105
  0
ARC
  8
C
  6
CONTINUOUS
 62
     7
 10
94.262307
 20
190.529902
 40
1.000000
 50
274.999763
 51
343.000028
  0
ARC
  8
C
  6
CONTINUOUS
 62
     7
 10
92.191569
 20
188.843006
 40
0.500000
 50
95.000499
 51
109.185482
  0
ARC
  8
C
  6
CONTINUOUS
 62
     7
 10
92.191569
 20
188.843006
 40
0.500000
 50
109.185482
 51
179.999901
  0
LINE
  8
HATCH
  6
CONTINUOUS
 62
     3
 10
90.295726
 20
183.051451
 11
90.541845
 21
182.805332
  0
LINE
  8
HATCH
  6
CONTINUOUS
 62
     3
 10
90.361078
 20
183.693206
 11
91.249710
 21
182.804573
  0
LINE
  8
HATCH
  6
CONTINUOUS
 62
     3
 10
90.791576
 20
183.969814
 11
91.652933
 21
183.108457
  0
LINE
  8
HATCH
  6
CONTINUOUS
 62
     3
 10
90.791576
 20
184.676921
 11
91.691564
 21
183.776933
  0
LINE
  8
HATCH
  6
CONTINUOUS
 62
     3
 10
87.591576
 20
188.584028
 11
87.729901
 21
188.445703
  0
LINE
  8
HATCH
  6
CONTINUOUS
 62
     3
 10
90.736098
 20
185.439506
 11
91.691564
 21
184.484040
  0
LINE
  8
HATCH
  6
CONTINUOUS
 62
     3
 10
87.367204
 20
189.515506
 11
88.799097
 21
188.083613
  0
LINE
  8
HATCH
  6
CONTINUOUS
 62
     3
 10
90.374008
 20
186.508703
 11
91.691564
 21
185.191147
  0
LINE
  8
HATCH
  6
CONTINUOUS
 62
     3
 10
87.591576
 20
189.998241
 11
91.691564
 21
185.898253
  0
LINE
  8
HATCH
  6
CONTINUOUS
 62
     3
 10
87.141576
 20
191.155348
 11
91.691564
 21
186.605360
  0
LINE
  8
HATCH
  6
CONTINUOUS
 62
     3
 10
87.433176
 20
191.570854
 11
91.672216
 21
187.331815
  0
LINE
  8
HATCH
  6
CONTINUOUS
 62
     3
 10
87.591576
 20
192.119561
 11
90.191575
 21
189.519562
  0
LINE
  8
HATCH
  6
CONTINUOUS
 62
     3
 10
87.141576
 20
193.276667
 11
90.191574
 21
190.226670
  0
LINE
  8
HATCH
  6
CONTINUOUS
 62
     3
 10
87.499145
 20
193.626206
 11
90.191573
 21
190.933777
  0
LINE
  8
HATCH
  6
CONTINUOUS
 62
     3
 10
87.591576
 20
194.240881
 11
90.191573
 21
191.640884
  0
LINE
  8
HATCH
  6
CONTINUOUS
 62
     3
 10
87.180628
 20
195.358936
 11
90.191573
 21
192.347992
  0
LINE
  8
HATCH
  6
CONTINUOUS
 62
     3
 10
87.564595
 20
195.682076
 11
90.191573
 21
193.055099
  0
LINE
  8
HATCH
  6
CONTINUOUS
 62
     3
 10
87.768654
 20
196.185123
 11
90.193659
 21
193.760119
  0
LINE
  8
HATCH
  6
CONTINUOUS
 62
     3
 10
87.947293
 20
196.713591
 11
90.489191
 21
194.171694
  0
LINE
  8
HATCH
  6
CONTINUOUS
 62
     3
 10
88.630541
 20
196.737450
 11
91.137633
 21
194.230359
  0
LINE
  8
HATCH
  6
CONTINUOUS
 62
     3
 10
89.313788
 20
196.761310
 11
91.820880
 21
194.254218
  0
LINE
  8
HATCH
  6
CONTINUOUS
 62
     3
 10
89.997035
 20
196.785169
 11
92.504127
 21
194.278078
  0
LINE
  8
HATCH
  6
CONTINUOUS
 62
     3
 10
90.680283
 20
196.809029
 11
93.187375
 21
194.301937
  0
LINE
  8
HATCH
  6
CONTINUOUS
 62
     3
 10
91.363530
 20
196.832888
 11
93.870622
 21
194.325797
  0
LINE
  8
HATCH
  6
CONTINUOUS
 62
     3
 10
92.046777
 20
196.856748
 11
94.553869
 21
194.349656
  0
LINE
  8
HATCH
  6
CONTINUOUS
 62
     3
 10
92.730025
 20
196.880607
 11
95.237116
 21
194.373516
  0
LINE
  8
HATCH
  6
CONTINUOUS
 62
     3
 10
93.413272
 20
196.904466
 11
95.863135
 21
194.454605
  0
LINE
  8
HATCH
  6
CONTINUOUS
 62
     3
 10
94.094271
 20
196.930574
 11
96.269807
 21
194.755039
  0
LINE
  8
HATCH
  6
CONTINUOUS
 62
     3
 10
94.600154
 20
197.131798
 11
96.482601
 21
195.249352
  0
LINE
  8
HATCH
  6
CONTINUOUS
 62
     3
 10
94.909804
 20
197.529255
 11
96.491559
 21
195.947500
  0
LINE
  8
HATCH
  6
CONTINUOUS
 62
     3
 10
94.991564
 20
198.154602
 11
96.491560
 21
196.654606
  0
LINE
  8
HATCH
  6
CONTINUOUS
 62
     3
 10
94.991564
 20
198.861709
 11
96.491561
 21
197.361712
  0
LINE
  8
HATCH
  6
CONTINUOUS
 62
     3
 10
94.991564
 20
199.568816
 11
96.491561
 21
198.068818
  0
LINE
  8
HATCH
  6
CONTINUOUS
 62
     3
 10
95.172642
 20
200.094845
 11
96.491563
 21
198.775924
  0
LINE
  8
HATCH
  6
CONTINUOUS
 62
     3
 10
96.091274
 20
199.883319
 11
96.291782
 21
199.682811
  0
ENDBLK
  8
0
  0
BLOCK
  8
C
  2
B-8
 70
    66
 10
0.000000
 20
0.000000
 30
0.000000
  0
LINE
  8
C
  6
CONTINUOUS
 62
     7
 10
102.291565
 20
195.001166
 11
152.791546
 21
195.001166
  0
LINE
  8
C
  6
CONTINUOUS
 62
     7
 10
152.791546
 20
195.001166
 11
152.791546
 21
180.001183
  0
LINE
  8
C
  6
CONTINUOUS
 62
     7
 10
152.791546
 20
180.001183
 11
102.291565
 21
180.001183
  0
LINE
  8
C
  6
BORDER
 62
     3
 10
101.459418
 20
187.501175
 11
153.560958
 21
187.501175
  0
LINE
  8
C
  6
BORDER
 62
     3
 10
134.591555
 20
177.314234
 11
134.591555
 21
198.179631
  0
LINE
  8
C
  6
CONTINUOUS
 62
     7
 10
99.591559
 20
199.501170
 11
99.591559
 21
175.501182
  0
LINE
  8
C
  6
CONTINUOUS
 62
     7
 10
102.291559
 20
175.501182
 11
102.291559
 21
199.501171
  0
LINE
  8
C
  6
BORDER
 62
     3
 10
106.287226
 20
187.501176
 11
92.152769
 21
187.501176
  0
LINE
  8
C
  6
CONTINUOUS
 62
     7
 10
102.291559
 20
175.501182
 11
99.591559
 21
175.501182
  0
LINE
  8
C
  6
CONTINUOUS
 62
     7
 10
102.291559
 20
199.501171
 11
99.591559
 21
199.501170
  0
LINE
  8
C
  6
CONTINUOUS
 62
     7
 10
102.491559
 20
181.801173
 11
105.491559
 21
181.801173
  0
LINE
  8
C
  6
CONTINUOUS
 62
     7
 10
105.491559
 20
181.801173
 11
105.491559
 21
193.201176
  0
LINE
  8
C
  6
CONTINUOUS
 62
     7
 10
105.491559
 20
193.201176
 11
102.491559
 21
193.201176
  0
LINE
  8
C
  6
CONTINUOUS
 62
     7
 10
102.491559
 20
193.201176
 11
102.491559
 21
181.801173
  0
ENDBLK
  8
0
  0
BLOCK
  8
C
  2
MEDCLUMP_SET_210_-3
 70
    66
 10
0.000000
 20
0.000000
 30
0.000000
  0
LINE
  8
C
  6
CONTINUOUS
 62
     3
 10
305.478375
 20
188.501192
 11
305.478375
 21
188.501192
  0
LINE
  8
C
  6
CONTINUOUS
 62
     3
 10
305.478375
 20
186.501199
 11
305.529219
 21
186.501199
  0
LINE
  8
C
  6
CONTINUOUS
 62
     3
 10
310.529215
 20
202.751155
 11
310.529215
 21
172.251193
  0
LINE
  8
C
  6
CONTINUOUS
 62
     3
 10
308.029215
 20
172.251193
 11
308.029215
 21
182.501199
  0
LINE
  8
C
  6
CONTINUOUS
 62
     3
 10
308.029215
 20
182.501199
 11
305.478375
 21
184.501199
  0
LINE
  8
C
  6
CONTINUOUS
 62
     3
 10
305.478375
 20
184.501199
 11
305.478375
 21
186.501199
  0
LINE
  8
C
  6
CONTINUOUS
 62
     3
 10
305.478375
 20
186.501199
 11
307.029219
 21
186.501199
  0
ARC
  8
C
  6
CONTINUOUS
 62
     3
 10
307.029211
 20
187.501185
 40
0.999991
 50
270.000467
 51
0.000436
  0
ARC
  8
C
  6
CONTINUOUS
 62
     3
 10
307.029219
 20
187.501179
 40
0.999983
 50
0.000809
 51
90.000908
  0
LINE
  8
C
  6
CONTINUOUS
 62
     3
 10
307.029203
 20
188.501160
 11
305.478375
 21
188.501160
  0
LINE
  8
C
  6
CONTINUOUS
 62
     3
 10
305.478375
 20
188.501160
 11
305.478375
 21
190.501192
  0
LINE
  8
C
  6
CONTINUOUS
 62
     3
 10
305.478375
 20
190.501192
 11
308.029215
 21
192.501192
  0
LINE
  8
C
  6
CONTINUOUS
 62
     3
 10
308.029215
 20
192.501192
 11
308.029215
 21
202.751155
  0
LINE
  8
C
  6
CONTINUOUS
 62
     3
 10
310.238199
 20
171.449414
 11
310.238199
 21
203.552934
  0
LINE
  8
C
  6
CONTINUOUS
 62
     3
 10
309.238199
 20
204.000482
 11
309.238199
 21
171.001866
  0
LINE
  8
C
  6
CONTINUOUS
 62
     3
 10
308.238199
 20
171.559250
 11
308.238199
 21
203.443098
  0
LINE
  8
C
  6
CONTINUOUS
 62
     3
 10
307.238203
 20
191.881012
 11
307.238203
 21
188.479096
  0
LINE
  8
C
  6
CONTINUOUS
 62
     3
 10
307.238203
 20
186.523293
 11
307.238203
 21
183.121437
  0
LINE
  8
C
  6
CONTINUOUS
 62
     3
 10
306.238203
 20
183.905495
 11
306.238203
 21
186.501199
  0
LINE
  8
C
  6
CONTINUOUS
 62
     3
 10
306.238203
 20
188.501192
 11
306.238203
 21
191.096956
  0
ARC
  8
C
  6
CONTINUOUS
 62
     3
 10
309.279217
 20
172.251189
 40
1.250000
 50
179.999816
 51
0.000184
  0
ARC
  8
C
  6
CONTINUOUS
 62
     3
 10
309.279217
 20
202.751157
 40
1.250000
 50
359.999909
 51
180.000091
  0
LINE
  8
C
  6
CONTINUOUS
 62
     4
 10
305.478375
 20
188.501192
 11
271.580041
 21
188.501224
  0
LINE
  8
C
  6
CONTINUOUS
 62
     4
 10
271.580041
 20
186.501231
 11
305.478375
 21
186.501199
  0
LINE
  8
C
  6
CONTINUOUS
 62
     3
 10
271.580042
 20
188.501224
 11
271.580042
 21
188.501224
  0
LINE
  8
C
  6
CONTINUOUS
 62
     3
 10
271.580042
 20
186.501232
 11
271.529198
 21
186.501232
  0
LINE
  8
C
  6
CONTINUOUS
 62
     3
 10
266.529202
 20
202.751187
 11
266.529202
 21
172.251226
  0
LINE
  8
C
  6
CONTINUOUS
 62
     3
 10
269.029202
 20
172.251226
 11
269.029202
 21
182.501232
  0
LINE
  8
C
  6
CONTINUOUS
 62
     3
 10
269.029202
 20
182.501232
 11
271.580042
 21
184.501232
  0
LINE
  8
C
  6
CONTINUOUS
 62
     3
 10
271.580042
 20
184.501232
 11
271.580042
 21
186.501232
  0
LINE
  8
C
  6
CONTINUOUS
 62
     3
 10
271.580042
 20
186.501232
 11
270.029198
 21
186.501232
  0
ARC
  8
C
  6
CONTINUOUS
 62
     3
 10
270.029205
 20
187.501219
 40
0.999991
 50
179.999648
 51
269.999595
  0
ARC
  8
C
  6
CONTINUOUS
 62
     3
 10
270.029197
 20
187.501212
 40
0.999983
 50
89.999030
 51
179.999275
  0
LINE
  8
C
  6
CONTINUOUS
 62
     3
 10
270.029214
 20
188.501192
 11
271.580042
 21
188.501192
  0
LINE
  8
C
  6
CONTINUOUS
 62
     3
 10
271.580042
 20
188.501192
 11
271.580042
 21
190.501224
  0
LINE
  8
C
  6
CONTINUOUS
 62
     3
 10
271.580042
 20
190.501224
 11
269.029202
 21
192.501224
  0
LINE
  8
C
  6
CONTINUOUS
 62
     3
 10
269.029202
 20
192.501224
 11
269.029202
 21
202.751187
  0
LINE
  8
C
  6
CONTINUOUS
 62
     3
 10
266.820218
 20
171.449447
 11
266.820218
 21
203.552966
  0
LINE
  8
C
  6
CONTINUOUS
 62
     3
 10
267.820218
 20
204.000514
 11
267.820218
 21
171.001899
  0
LINE
  8
C
  6
CONTINUOUS
 62
     3
 10
268.820218
 20
171.559283
 11
268.820218
 21
203.443130
  0
LINE
  8
C
  6
CONTINUOUS
 62
     3
 10
269.820214
 20
191.881044
 11
269.820214
 21
188.479128
  0
LINE
  8
C
  6
CONTINUOUS
 62
     3
 10
269.820214
 20
186.523326
 11
269.820214
 21
183.121470
  0
LINE
  8
C
  6
CONTINUOUS
 62
     3
 10
270.820214
 20
183.905528
 11
270.820214
 21
186.501232
  0
LINE
  8
C
  6
CONTINUOUS
 62
     3
 10
270.820214
 20
188.501224
 11
270.820214
 21
191.096988
  0
ARC
  8
C
  6
CONTINUOUS
 62
     3
 10
267.779199
 20
172.251222
 40
1.250000
 50
179.999837
 51
0.000163
  0
ARC
  8
C
  6
CONTINUOUS
 62
     3
 10
267.779199
 20
202.751190
 40
1.250000
 50
359.999842
 51
180.000158
  0
LINE
  8
C
  6
CONTINUOUS
 62
     3
 10
271.580042
 20
188.501224
 11
305.478376
 21
188.501258
  0
LINE
  8
C
  6
CONTINUOUS
 62
     3
 10
305.478376
 20
186.501266
 11
271.580042
 21
186.501232
  0
ENDBLK
  8
0
  0
BLOCK
  8
C
  2
MEDCLUMP_SET_210_-4
 70
    66
 10
0.000000
 20
0.000000
 30
0.000000
  0
LINE
  8
C
  6
CONTINUOUS
 62
     3
 10
331.580043
 20
188.501172
 11
331.580043
 21
188.501172
  0
LINE
  8
C
  6
CONTINUOUS
 62
     3
 10
331.580043
 20
186.501177
 11
331.529199
 21
186.501177
  0
LINE
  8
C
  6
CONTINUOUS
 62
     3
 10
326.529203
 20
202.751135
 11
326.529203
 21
172.251170
  0
LINE
  8
C
  6
CONTINUOUS
 62
     3
 10
329.029204
 20
172.251170
 11
329.029203
 21
182.501176
  0
LINE
  8
C
  6
CONTINUOUS
 62
     3
 10
329.029203
 20
182.501176
 11
331.580043
 21
184.501177
  0
LINE
  8
C
  6
CONTINUOUS
 62
     3
 10
331.580043
 20
184.501177
 11
331.580043
 21
186.501177
  0
LINE
  8
C
  6
CONTINUOUS
 62
     3
 10
331.580043
 20
186.501177
 11
330.029199
 21
186.501177
  0
ARC
  8
C
  6
CONTINUOUS
 62
     3
 10
330.029208
 20
187.501164
 40
0.999991
 50
179.999564
 51
269.999490
  0
ARC
  8
C
  6
CONTINUOUS
 62
     3
 10
330.029200
 20
187.501158
 40
0.999983
 50
89.999135
 51
179.999191
  0
LINE
  8
C
  6
CONTINUOUS
 62
     3
 10
330.029215
 20
188.501140
 11
331.580043
 21
188.501140
  0
LINE
  8
C
  6
CONTINUOUS
 62
     3
 10
331.580043
 20
188.501140
 11
331.580043
 21
190.501172
  0
LINE
  8
C
  6
CONTINUOUS
 62
     3
 10
331.580043
 20
190.501172
 11
329.029203
 21
192.501172
  0
LINE
  8
C
  6
CONTINUOUS
 62
     3
 10
329.029203
 20
192.501172
 11
329.029203
 21
202.751135
  0
LINE
  8
C
  6
CONTINUOUS
 62
     3
 10
326.820219
 20
171.449391
 11
326.820219
 21
203.552914
  0
LINE
  8
C
  6
CONTINUOUS
 62
     3
 10
327.820219
 20
204.000462
 11
327.820220
 21
171.001843
  0
LINE
  8
C
  6
CONTINUOUS
 62
     3
 10
328.820220
 20
171.559227
 11
328.820219
 21
203.443078
  0
LINE
  8
C
  6
CONTINUOUS
 62
     3
 10
329.820215
 20
191.880992
 11
329.820215
 21
188.479076
  0
LINE
  8
C
  6
CONTINUOUS
 62
     3
 10
329.820215
 20
186.523271
 11
329.820215
 21
183.121414
  0
LINE
  8
C
  6
CONTINUOUS
 62
     3
 10
330.820215
 20
183.905472
 11
330.820215
 21
186.501177
  0
LINE
  8
C
  6
CONTINUOUS
 62
     3
 10
330.820215
 20
188.501172
 11
330.820215
 21
191.096936
  0
ARC
  8
C
  6
CONTINUOUS
 62
     3
 10
327.779202
 20
172.251168
 40
1.250000
 50
179.999908
 51
0.000092
  0
ARC
  8
C
  6
CONTINUOUS
 62
     3
 10
327.779202
 20
202.751136
 40
1.250000
 50
359.999955
 51
180.000045
  0
LINE
  8
C
  6
CONTINUOUS
 62
     4
 10
331.580043
 20
188.501172
 11
365.478377
 21
188.501205
  0
LINE
  8
C
  6
CONTINUOUS
 62
     4
 10
365.478377
 20
186.501210
 11
331.580043
 21
186.501177
  0
LINE
  8
C
  6
CONTINUOUS
 62
     3
 10
365.478369
 20
188.501171
 11
365.478369
 21
188.501171
  0
LINE
  8
C
  6
CONTINUOUS
 62
     3
 10
365.478369
 20
186.501177
 11
365.529213
 21
186.501177
  0
LINE
  8
C
  6
CONTINUOUS
 62
     3
 10
370.529209
 20
202.751134
 11
370.529209
 21
172.251171
  0
LINE
  8
C
  6
CONTINUOUS
 62
     3
 10
368.029209
 20
172.251171
 11
368.029209
 21
182.501177
  0
LINE
  8
C
  6
CONTINUOUS
 62
     3
 10
368.029209
 20
182.501177
 11
365.478369
 21
184.501177
  0
LINE
  8
C
  6
CONTINUOUS
 62
     3
 10
365.478369
 20
184.501177
 11
365.478369
 21
186.501177
  0
LINE
  8
C
  6
CONTINUOUS
 62
     3
 10
365.478369
 20
186.501177
 11
367.029213
 21
186.501177
  0
ARC
  8
C
  6
CONTINUOUS
 62
     3
 10
367.029206
 20
187.501164
 40
0.999991
 50
270.000409
 51
0.000436
  0
ARC
  8
C
  6
CONTINUOUS
 62
     3
 10
367.029214
 20
187.501158
 40
0.999983
 50
0.000809
 51
90.000966
  0
LINE
  8
C
  6
CONTINUOUS
 62
     3
 10
367.029197
 20
188.501139
 11
365.478369
 21
188.501139
  0
LINE
  8
C
  6
CONTINUOUS
 62
     3
 10
365.478369
 20
188.501139
 11
365.478369
 21
190.501171
  0
LINE
  8
C
  6
CONTINUOUS
 62
     3
 10
365.478369
 20
190.501171
 11
368.029209
 21
192.501171
  0
LINE
  8
C
  6
CONTINUOUS
 62
     3
 10
368.029209
 20
192.501171
 11
368.029209
 21
202.751134
  0
LINE
  8
C
  6
CONTINUOUS
 62
     3
 10
370.238193
 20
171.449392
 11
370.238193
 21
203.552913
  0
LINE
  8
C
  6
CONTINUOUS
 62
     3
 10
369.238193
 20
204.000461
 11
369.238193
 21
171.001844
  0
LINE
  8
C
  6
CONTINUOUS
 62
     3
 10
368.238193
 20
171.559228
 11
368.238193
 21
203.443077
  0
LINE
  8
C
  6
CONTINUOUS
 62
     3
 10
367.238197
 20
191.880991
 11
367.238197
 21
188.479075
  0
LINE
  8
C
  6
CONTINUOUS
 62
     3
 10
367.238197
 20
186.523271
 11
367.238197
 21
183.121415
  0
LINE
  8
C
  6
CONTINUOUS
 62
     3
 10
366.238197
 20
183.905473
 11
366.238197
 21
186.501177
  0
LINE
  8
C
  6
CONTINUOUS
 62
     3
 10
366.238197
 20
188.501171
 11
366.238197
 21
191.096935
  0
ARC
  8
C
  6
CONTINUOUS
 62
     3
 10
369.279212
 20
172.251168
 40
1.250000
 50
179.999862
 51
0.000138
  0
ARC
  8
C
  6
CONTINUOUS
 62
     3
 10
369.279212
 20
202.751136
 40
1.250000
 50
359.999909
 51
180.000091
  0
LINE
  8
C
  6
CONTINUOUS
 62
     3
 10
365.478369
 20
188.501171
 11
331.580035
 21
188.501204
  0
LINE
  8
C
  6
CONTINUOUS
 62
     3
 10
331.580035
 20
186.501210
 11
365.478369
 21
186.501177
  0
ENDBLK
  8
0
  0
BLOCK
  8
C
  2
MEDCLUMP_SET_723_-2
 70
    66
 10
0.000000
 20
0.000000
 30
0.000000
  0
ARC
  8
C
  6
CONTINUOUS
 62
     4
 10
265.029234
 20
179.001182
 40
1.500021
 50
90.000152
 51
180.000468
  0
LINE
  8
C
  6
CONTINUOUS
 62
     4
 10
265.029230
 20
180.501200
 11
265.129236
 21
180.501200
  0
ARC
  8
C
  6
CONTINUOUS
 62
     4
 10
265.129196
 20
179.101186
 40
1.400017
 50
359.998315
 51
89.998369
  0
LINE
  8
C
  6
CONTINUOUS
 62
     4
 10
266.529216
 20
179.101145
 11
266.529216
 21
172.251170
  0
ARC
  8
C
  6
CONTINUOUS
 62
     4
 10
267.779204
 20
172.251194
 40
1.249991
 50
180.001109
 51
270.001184
  0
ARC
  8
C
  6
CONTINUOUS
 62
     4
 10
267.779236
 20
172.251180
 40
1.249977
 50
269.999723
 51
359.999578
  0
LINE
  8
C
  6
CONTINUOUS
 62
     4
 10
269.029216
 20
172.251171
 11
269.029216
 21
180.501171
  0
LINE
  8
C
  6
CONTINUOUS
 62
     4
 10
269.029216
 20
180.501171
 11
270.529222
 21
180.501171
  0
LINE
  8
C
  6
CONTINUOUS
 62
     4
 10
270.529222
 20
180.501171
 11
270.529222
 21
172.251171
  0
ARC
  8
C
  6
CONTINUOUS
 62
     4
 10
267.779240
 20
172.251182
 40
2.749979
 50
269.999788
 51
359.999769
  0
ARC
  8
C
  6
CONTINUOUS
 62
     4
 10
267.779206
 20
172.251190
 40
2.749987
 50
180.000418
 51
270.000499
  0
LINE
  8
C
  6
CONTINUOUS
 62
     4
 10
265.029222
 20
172.251170
 11
265.029222
 21
178.320260
  0
LINE
  8
C
  6
CONTINUOUS
 62
     4
 10
265.029222
 20
178.320260
 11
265.029222
 21
160.501176
  0
ARC
  8
C
  6
CONTINUOUS
 62
     4
 10
263.529224
 20
160.501168
 40
1.499995
 50
270.000220
 51
0.000305
  0
LINE
  8
C
  6
CONTINUOUS
 62
     4
 10
263.529230
 20
159.001176
 11
243.241114
 21
159.001176
  0
LINE
  8
C
  6
CONTINUOUS
 62
     4
 10
243.241114
 20
159.001176
 11
302.029210
 21
159.001177
  0
LINE
  8
C
  6
CONTINUOUS
 62
     4
 10
302.029210
 20
159.001177
 11
302.029210
 21
164.501177
  0
ARC
  8
C
  6
CONTINUOUS
 62
     4
 10
303.529212
 20
164.501174
 40
1.499999
 50
90.000076
 51
179.999895
  0
LINE
  8
C
  6
CONTINUOUS
 62
     4
 10
303.529210
 20
166.001177
 11
312.029210
 21
166.001177
  0
LINE
  8
C
  6
CONTINUOUS
 62
     4
 10
312.029210
 20
166.001177
 11
312.029210
 21
167.501161
  0
LINE
  8
C
  6
CONTINUOUS
 62
     4
 10
313.529210
 20
167.501161
 11
313.529210
 21
166.001177
  0
ARC
  8
C
  6
CONTINUOUS
 62
     4
 10
312.029214
 20
166.001172
 40
1.499999
 50
269.999838
 51
0.000190
  0
LINE
  8
C
  6
CONTINUOUS
 62
     4
 10
312.029210
 20
164.501177
 11
303.529210
 21
164.501177
  0
LINE
  8
C
  6
CONTINUOUS
 62
     4
 10
303.529210
 20
164.501177
 11
303.529210
 21
159.001177
  0
ARC
  8
C
  6
CONTINUOUS
 62
     4
 10
302.029214
 20
159.001172
 40
1.499999
 50
269.999838
 51
0.000190
  0
LINE
  8
C
  6
CONTINUOUS
 62
     4
 10
302.029210
 20
157.501178
 11
263.529230
 21
157.501177
  0
LINE
  8
C
  6
CONTINUOUS
 62
     4
 10
263.529230
 20
157.501177
 11
243.029230
 21
157.501177
  0
ARC
  8
C
  6
CONTINUOUS
 62
     4
 10
243.029226
 20
159.001172
 40
1.499999
 50
179.999848
 51
270.000153
  0
ARC
  8
C
  6
CONTINUOUS
 62
     4
 10
243.029226
 20
159.001174
 40
1.499999
 50
89.999847
 51
179.999934
  0
LINE
  8
C
  6
CONTINUOUS
 62
     4
 10
243.029230
 20
160.501176
 11
263.529230
 21
160.501176
  0
LINE
  8
C
  6
CONTINUOUS
 62
     4
 10
263.529230
 20
160.501176
 11
263.529216
 21
179.001170
  0
LINE
  8
C
  6
CONTINUOUS
 62
     4
 10
313.529213
 20
176.905009
 11
313.529211
 21
171.905019
  0
LINE
  8
C
  6
CONTINUOUS
 62
     4
 10
313.529211
 20
171.905019
 11
313.529210
 21
167.501193
  0
LINE
  8
C
  6
CONTINUOUS
 62
     4
 10
312.029229
 20
167.501193
 11
312.029229
 21
171.905019
  0
LINE
  8
C
  6
CONTINUOUS
 62
     4
 10
312.029229
 20
171.905019
 11
312.029229
 21
178.320345
  0
LINE
  8
C
  6
CONTINUOUS
 62
     4
 10
312.029229
 20
178.320345
 11
312.029229
 21
176.905009
  0
LINE
  8
C
  6
CONTINUOUS
 62
     4
 10
306.529215
 20
172.251187
 11
306.529215
 21
180.501192
  0
LINE
  8
C
  6
CONTINUOUS
 62
     4
 10
306.529215
 20
180.501192
 11
308.029245
 21
180.501192
  0
LINE
  8
C
  6
CONTINUOUS
 62
     4
 10
308.029245
 20
180.501192
 11
308.029215
 21
172.251213
  0
LINE
  8
C
  6
CONTINUOUS
 62
     4
 10
310.529239
 20
172.251187
 11
310.529237
 21
179.101229
  0
ARC
  8
C
  6
CONTINUOUS
 62
     4
 10
311.929207
 20
179.101227
 40
1.399967
 50
89.999921
 51
179.999926
  0
LINE
  8
C
  6
CONTINUOUS
 62
     4
 10
311.929209
 20
180.501192
 11
312.029215
 21
180.501192
  0
ARC
  8
C
  6
CONTINUOUS
 62
     4
 10
312.029219
 20
179.001195
 40
1.499999
 50
359.999914
 51
90.000162
  0
LINE
  8
C
  6
CONTINUOUS
 62
     4
 10
313.529215
 20
179.001193
 11
313.529213
 21
176.905009
  0
ARC
  8
C
  6
CONTINUOUS
 62
     4
 10
309.279238
 20
172.251183
 40
2.750021
 50
179.999923
 51
0.000077
  0
ARC
  8
C
  6
CONTINUOUS
 62
     4
 10
309.279230
 20
172.251206
 40
1.250012
 50
179.999678
 51
359.999130
  0
ENDBLK
  8
0
  0
BLOCK
  8
C
  2
MEDCLUMP_SET_1446_-2
 70
    66
 10
0.000000
 20
0.000000
 30
0.000000
  0
ARC
  8
C
  6
CONTINUOUS
 62
     4
 10
265.029212
 20
196.001172
 40
1.499999
 50
179.999810
 51
270.000115
  0
LINE
  8
C
  6
CONTINUOUS
 62
     4
 10
265.029215
 20
194.501177
 11
265.129221
 21
194.501177
  0
ARC
  8
C
  6
CONTINUOUS
 62
     4
 10
265.129224
 20
195.901138
 40
1.399965
 50
269.999871
 51
0.000037
  0
LINE
  8
C
  6
CONTINUOUS
 62
     4
 10
266.529191
 20
195.901139
 11
266.529191
 21
202.751177
  0
ARC
  8
C
  6
CONTINUOUS
 62
     4
 10
267.779200
 20
202.751162
 40
1.250011
 50
89.999320
 51
179.999316
  0
ARC
  8
C
  6
CONTINUOUS
 62
     4
 10
267.779198
 20
202.751190
 40
1.249983
 50
359.999401
 51
89.999223
  0
LINE
  8
C
  6
CONTINUOUS
 62
     4
 10
269.029183
 20
202.751177
 11
269.029183
 21
194.501177
  0
LINE
  8
C
  6
CONTINUOUS
 62
     4
 10
269.029183
 20
194.501177
 11
270.529215
 21
194.501177
  0
LINE
  8
C
  6
CONTINUOUS
 62
     4
 10
270.529215
 20
194.501177
 11
270.529215
 21
202.751177
  0
ARC
  8
C
  6
CONTINUOUS
 62
     4
 10
267.779200
 20
202.751190
 40
2.750013
 50
359.999725
 51
89.999691
  0
ARC
  8
C
  6
CONTINUOUS
 62
     4
 10
267.779218
 20
202.751182
 40
2.750021
 50
90.000064
 51
180.000108
  0
LINE
  8
C
  6
CONTINUOUS
 62
     4
 10
265.029199
 20
202.751177
 11
265.029199
 21
196.682023
  0
LINE
  8
C
  6
CONTINUOUS
 62
     4
 10
265.029199
 20
196.682023
 11
265.029199
 21
216.001173
  0
LINE
  8
C
  6
CONTINUOUS
 62
     4
 10
265.029199
 20
216.001173
 11
326.515263
 21
216.001173
  0
LINE
  8
C
  6
CONTINUOUS
 62
     4
 10
326.515263
 20
216.001173
 11
305.529211
 21
216.001173
  0
ARC
  8
C
  6
CONTINUOUS
 62
     4
 10
305.529210
 20
212.501176
 40
3.499997
 50
89.999992
 51
180.000045
  0
ARC
  8
C
  6
CONTINUOUS
 62
     4
 10
305.529195
 20
212.501186
 40
3.499982
 50
180.000205
 51
270.000254
  0
LINE
  8
C
  6
CONTINUOUS
 62
     4
 10
305.529211
 20
209.001203
 11
312.029179
 21
209.001203
  0
LINE
  8
C
  6
CONTINUOUS
 62
     4
 10
312.029179
 20
209.001203
 11
312.029179
 21
207.501157
  0
LINE
  8
C
  6
CONTINUOUS
 62
     4
 10
313.529211
 20
207.501157
 11
313.529211
 21
209.001173
  0
ARC
  8
C
  6
CONTINUOUS
 62
     4
 10
312.029184
 20
209.001204
 40
1.500029
 50
359.998806
 51
89.998977
  0
LINE
  8
C
  6
CONTINUOUS
 62
     4
 10
312.029211
 20
210.501233
 11
305.529179
 21
210.501233
  0
ARC
  8
C
  6
CONTINUOUS
 62
     4
 10
305.529150
 20
212.501202
 40
1.999969
 50
180.000821
 51
270.000842
  0
LINE
  8
C
  6
CONTINUOUS
 62
     4
 10
303.529179
 20
212.501173
 11
303.529179
 21
212.601147
  0
ARC
  8
C
  6
CONTINUOUS
 62
     4
 10
305.429190
 20
212.601165
 40
1.900009
 50
90.000503
 51
180.000529
  0
LINE
  8
C
  6
CONTINUOUS
 62
     4
 10
305.429173
 20
214.501173
 11
327.029211
 21
214.501173
  0
ARC
  8
C
  6
CONTINUOUS
 62
     4
 10
327.029214
 20
216.001172
 40
1.499999
 50
269.999877
 51
0.000037
  0
ARC
  8
C
  6
CONTINUOUS
 62
     4
 10
327.029199
 20
216.001189
 40
1.500014
 50
359.999379
 51
89.999550
  0
LINE
  8
C
  6
CONTINUOUS
 62
     4
 10
327.029211
 20
217.501203
 11
302.029211
 21
217.501203
  0
LINE
  8
C
  6
CONTINUOUS
 62
     4
 10
302.029211
 20
217.501203
 11
265.029215
 21
217.501203
  0
ARC
  8
C
  6
CONTINUOUS
 62
     4
 10
265.029246
 20
216.001176
 40
1.500027
 50
90.001184
 51
180.001347
  0
LINE
  8
C
  6
CONTINUOUS
 62
     4
 10
263.529221
 20
216.001141
 11
263.529215
 21
196.001177
  0
LINE
  8
C
  6
CONTINUOUS
 62
     4
 10
312.029203
 20
207.501157
 11
312.029204
 21
203.120323
  0
LINE
  8
C
  6
CONTINUOUS
 62
     4
 10
312.029206
 20
198.120317
 11
312.029208
 21
196.682107
  0
LINE
  8
C
  6
CONTINUOUS
 62
     4
 10
312.029208
 20
196.682107
 11
312.029204
 21
203.120323
  0
LINE
  8
C
  6
CONTINUOUS
 62
     4
 10
306.529216
 20
202.751161
 11
306.529208
 21
194.501199
  0
LINE
  8
C
  6
CONTINUOUS
 62
     4
 10
306.529208
 20
194.501199
 11
308.029216
 21
194.501199
  0
LINE
  8
C
  6
CONTINUOUS
 62
     4
 10
308.029216
 20
194.501199
 11
308.029216
 21
202.751161
  0
LINE
  8
C
  6
CONTINUOUS
 62
     4
 10
310.529216
 20
202.751161
 11
310.529216
 21
195.901223
  0
ARC
  8
C
  6
CONTINUOUS
 62
     4
 10
311.929234
 20
195.901178
 40
1.400016
 50
179.998162
 51
269.998360
  0
LINE
  8
C
  6
CONTINUOUS
 62
     4
 10
311.929194
 20
194.501167
 11
312.029200
 21
194.501167
  0
ARC
  8
C
  6
CONTINUOUS
 62
     4
 10
312.029195
 20
196.001185
 40
1.500023
 50
270.000182
 51
0.000534
  0
LINE
  8
C
  6
CONTINUOUS
 62
     4
 10
313.529216
 20
196.001199
 11
313.529214
 21
198.120317
  0
LINE
  8
C
  6
CONTINUOUS
 62
     4
 10
313.529214
 20
198.120317
 11
313.529212
 21
203.120323
  0
LINE
  8
C
  6
CONTINUOUS
 62
     4
 10
313.529212
 20
203.120323
 11
313.529211
 21
207.501157
  0
ARC
  8
C
  6
CONTINUOUS
 62
     4
 10
309.279193
 20
202.751185
 40
2.749975
 50
359.999499
 51
180.000501
  0
ARC
  8
C
  6
CONTINUOUS
 62
     4
 10
309.279218
 20
202.751157
 40
1.250006
 50
0.000201
 51
179.999799
  0
ENDBLK
  8
0
  0
BLOCK
  8
C
  2
MEDCLUMP_SET_2140_-2
 70
    66
 10
0.000000
 20
0.000000
 30
0.000000
  0
LINE
  8
C
  6
CONTINUOUS
 62
     4
 10
373.529209
 20
176.904987
 11
373.529207
 21
171.904997
  0
LINE
  8
C
  6
CONTINUOUS
 62
     4
 10
373.529207
 20
171.904997
 11
373.529206
 21
167.501171
  0
LINE
  8
C
  6
CONTINUOUS
 62
     4
 10
373.529206
 20
167.501171
 11
373.529203
 21
159.001207
  0
ARC
  8
C
  6
CONTINUOUS
 62
     4
 10
372.029179
 20
159.001167
 40
1.500026
 50
270.001214
 51
0.001527
  0
LINE
  8
C
  6
CONTINUOUS
 62
     4
 10
372.029211
 20
157.501145
 11
335.029215
 21
157.501144
  0
LINE
  8
C
  6
CONTINUOUS
 62
     4
 10
335.029215
 20
157.501144
 11
310.029215
 21
157.501144
  0
ARC
  8
C
  6
CONTINUOUS
 62
     4
 10
310.029228
 20
159.001156
 40
1.500015
 50
179.999237
 51
269.999504
  0
ARC
  8
C
  6
CONTINUOUS
 62
     4
 10
310.029212
 20
159.001174
 40
1.499999
 50
89.999885
 51
179.999934
  0
LINE
  8
C
  6
CONTINUOUS
 62
     4
 10
310.029215
 20
160.501176
 11
331.629251
 21
160.501176
  0
ARC
  8
C
  6
CONTINUOUS
 62
     4
 10
331.629236
 20
162.401181
 40
1.900008
 50
270.000467
 51
0.000581
  0
LINE
  8
C
  6
CONTINUOUS
 62
     4
 10
333.529245
 20
162.401200
 11
333.529245
 21
162.501176
  0
ARC
  8
C
  6
CONTINUOUS
 62
     4
 10
331.529276
 20
162.501144
 40
1.999968
 50
0.000927
 51
90.000877
  0
LINE
  8
C
  6
CONTINUOUS
 62
     4
 10
331.529245
 20
164.501114
 11
325.029215
 21
164.501114
  0
ARC
  8
C
  6
CONTINUOUS
 62
     4
 10
325.029243
 20
166.001141
 40
1.500030
 50
179.998664
 51
269.998931
  0
LINE
  8
C
  6
CONTINUOUS
 62
     4
 10
323.529215
 20
166.001176
 11
323.529215
 21
167.501170
  0
LINE
  8
C
  6
CONTINUOUS
 62
     4
 10
325.029245
 20
167.501170
 11
325.029245
 21
166.001144
  0
LINE
  8
C
  6
CONTINUOUS
 62
     4
 10
325.029245
 20
166.001144
 11
331.529215
 21
166.001144
  0
ARC
  8
C
  6
CONTINUOUS
 62
     4
 10
331.529232
 20
162.501160
 40
3.499981
 50
0.000266
 51
90.000274
  0
ARC
  8
C
  6
CONTINUOUS
 62
     4
 10
331.529216
 20
162.501171
 40
3.499997
 50
269.999988
 51
0.000090
  0
LINE
  8
C
  6
CONTINUOUS
 62
     4
 10
331.529215
 20
159.001176
 11
310.543161
 21
159.001176
  0
LINE
  8
C
  6
CONTINUOUS
 62
     4
 10
310.543161
 20
159.001176
 11
372.029225
 21
159.001177
  0
LINE
  8
C
  6
CONTINUOUS
 62
     4
 10
372.029225
 20
159.001177
 11
372.029225
 21
167.501171
  0
LINE
  8
C
  6
CONTINUOUS
 62
     4
 10
372.029225
 20
167.501171
 11
372.029225
 21
171.904997
  0
LINE
  8
C
  6
CONTINUOUS
 62
     4
 10
372.029225
 20
171.904997
 11
372.029225
 21
178.320323
  0
LINE
  8
C
  6
CONTINUOUS
 62
     4
 10
372.029225
 20
178.320323
 11
372.029225
 21
176.904987
  0
LINE
  8
C
  6
CONTINUOUS
 62
     4
 10
366.529211
 20
172.251165
 11
366.529211
 21
180.501170
  0
LINE
  8
C
  6
CONTINUOUS
 62
     4
 10
366.529211
 20
180.501170
 11
368.029241
 21
180.501170
  0
LINE
  8
C
  6
CONTINUOUS
 62
     4
 10
368.029241
 20
180.501170
 11
368.029211
 21
172.251191
  0
LINE
  8
C
  6
CONTINUOUS
 62
     4
 10
370.529235
 20
172.251165
 11
370.529233
 21
179.101207
  0
ARC
  8
C
  6
CONTINUOUS
 62
     4
 10
371.929202
 20
179.101206
 40
1.399967
 50
89.999880
 51
179.999967
  0
LINE
  8
C
  6
CONTINUOUS
 62
     4
 10
371.929205
 20
180.501170
 11
372.029211
 21
180.501170
  0
ARC
  8
C
  6
CONTINUOUS
 62
     4
 10
372.029214
 20
179.001174
 40
1.499999
 50
359.999875
 51
90.000123
  0
LINE
  8
C
  6
CONTINUOUS
 62
     4
 10
373.529211
 20
179.001171
 11
373.529209
 21
176.904987
  0
ARC
  8
C
  6
CONTINUOUS
 62
     4
 10
369.279233
 20
172.251162
 40
2.750021
 50
179.999943
 51
0.000057
  0
ARC
  8
C
  6
CONTINUOUS
 62
     4
 10
369.279225
 20
172.251185
 40
1.250012
 50
179.999724
 51
359.999084
  0
LINE
  8
C
  6
CONTINUOUS
 62
     4
 10
323.529204
 20
176.904986
 11
323.529206
 21
171.904996
  0
LINE
  8
C
  6
CONTINUOUS
 62
     4
 10
323.529206
 20
171.904996
 11
323.529207
 21
167.501170
  0
LINE
  8
C
  6
CONTINUOUS
 62
     4
 10
325.029189
 20
167.501170
 11
325.029188
 21
171.904996
  0
LINE
  8
C
  6
CONTINUOUS
 62
     4
 10
325.029188
 20
171.904996
 11
325.029188
 21
178.320322
  0
LINE
  8
C
  6
CONTINUOUS
 62
     4
 10
325.029188
 20
178.320322
 11
325.029188
 21
176.904986
  0
LINE
  8
C
  6
CONTINUOUS
 62
     4
 10
330.529202
 20
172.251164
 11
330.529202
 21
180.501170
  0
LINE
  8
C
  6
CONTINUOUS
 62
     4
 10
330.529202
 20
180.501170
 11
329.029172
 21
180.501168
  0
LINE
  8
C
  6
CONTINUOUS
 62
     4
 10
329.029172
 20
180.501168
 11
329.029202
 21
172.251190
  0
LINE
  8
C
  6
CONTINUOUS
 62
     4
 10
326.529178
 20
172.251164
 11
326.529180
 21
179.101206
  0
ARC
  8
C
  6
CONTINUOUS
 62
     4
 10
325.129212
 20
179.101206
 40
1.399967
 50
359.999992
 51
90.000151
  0
LINE
  8
C
  6
CONTINUOUS
 62
     4
 10
325.129208
 20
180.501168
 11
325.029202
 21
180.501168
  0
ARC
  8
C
  6
CONTINUOUS
 62
     4
 10
325.029200
 20
179.001174
 40
1.499999
 50
89.999905
 51
180.000163
  0
LINE
  8
C
  6
CONTINUOUS
 62
     4
 10
323.529202
 20
179.001170
 11
323.529204
 21
176.904986
  0
ARC
  8
C
  6
CONTINUOUS
 62
     4
 10
327.779180
 20
172.251162
 40
2.750021
 50
179.999964
 51
0.000036
  0
ARC
  8
C
  6
CONTINUOUS
 62
     4
 10
327.779189
 20
172.251185
 40
1.250012
 50
180.000962
 51
0.000230
  0
LINE
  8
HATCH
  6
CONTINUOUS
 62
     3
 10
324.481650
 20
175.099256
 11
324.978221
 21
175.595827
  0
LINE
  8
HATCH
  6
CONTINUOUS
 62
     3
 10
323.529204
 20
175.419602
 11
324.978221
 21
176.868619
  0
LINE
  8
HATCH
  6
CONTINUOUS
 62
     3
 10
323.529203
 20
176.692393
 11
324.978221
 21
178.141412
  0
LINE
  8
HATCH
  6
CONTINUOUS
 62
     3
 10
323.529202
 20
177.965184
 11
324.978220
 21
179.414203
  0
LINE
  8
HATCH
  6
CONTINUOUS
 62
     3
 10
323.551801
 20
179.260576
 11
324.769798
 21
180.478573
  0
LINE
  8
HATCH
  6
CONTINUOUS
 62
     3
 10
324.808050
 20
194.517540
 11
324.978221
 21
194.687711
  0
LINE
  8
HATCH
  6
CONTINUOUS
 62
     3
 10
323.963391
 20
194.945674
 11
324.978221
 21
195.960503
  0
LINE
  8
HATCH
  6
CONTINUOUS
 62
     3
 10
323.543014
 20
195.798089
 11
324.978221
 21
197.233296
  0
LINE
  8
HATCH
  6
CONTINUOUS
 62
     3
 10
323.529202
 20
197.057069
 11
324.978221
 21
198.506088
  0
LINE
  8
HATCH
  6
CONTINUOUS
 62
     3
 10
323.529203
 20
198.329862
 11
324.978221
 21
199.778880
  0
LINE
  8
HATCH
  6
CONTINUOUS
 62
     3
 10
323.529204
 20
199.602655
 11
324.025777
 21
200.099228
  0
LINE
  8
DIMENSION
  6
CONTINUOUS
 62
     3
 10
356.527917
 20
150.678629
 11
324.282782
 21
176.818138
  0
LINE
  8
DIMENSION
  6
CONTINUOUS
 62
     3
 10
356.527917
 20
138.078629
 11
341.333845
 21
124.861252
  0
ENDBLK
  8
0
  0
BLOCK
  8
C
  2
B-9
 70
    66
 10
0.000000
 20
0.000000
 30
0.000000
  0
LINE
  8
C
  6
CONTINUOUS
 62
     4
 10
313.529205
 20
203.001176
 11
313.529205
 21
203.001176
  0
ENDBLK
  8
0
  0
BLOCK
  8
C
  2
MEDCLUMP_SET_2819_-2
 70
    66
 10
0.000000
 20
0.000000
 30
0.000000
  0
ARC
  8
C
  6
CONTINUOUS
 62
     4
 10
261.029265
 20
215.001173
 40
2.499990
 50
0.000114
 51
90.000274
  0
LINE
  8
C
  6
CONTINUOUS
 62
     4
 10
261.029253
 20
217.501162
 11
244.529257
 21
217.501162
  0
ARC
  8
C
  6
CONTINUOUS
 62
     4
 10
244.529246
 20
216.501172
 40
0.999991
 50
89.999390
 51
179.999650
  0
LINE
  8
C
  6
CONTINUOUS
 62
     4
 10
243.529257
 20
216.501178
 11
243.529257
 21
193.501183
  0
ARC
  8
C
  6
CONTINUOUS
 62
     4
 10
244.529254
 20
193.501178
 40
0.999999
 50
179.999736
 51
270.000151
  0
LINE
  8
C
  6
CONTINUOUS
 62
     4
 10
244.529257
 20
192.501183
 11
256.529253
 21
192.501183
  0
LINE
  8
C
  6
CONTINUOUS
 62
     4
 10
256.529253
 20
193.501183
 11
244.529257
 21
193.501183
  0
LINE
  8
C
  6
CONTINUOUS
 62
     4
 10
244.529257
 20
193.501183
 11
244.529257
 21
216.501146
  0
LINE
  8
C
  6
CONTINUOUS
 62
     4
 10
244.529257
 20
216.501146
 11
261.029237
 21
216.501146
  0
ARC
  8
C
  6
CONTINUOUS
 62
     4
 10
261.029252
 20
215.001168
 40
1.499979
 50
0.000372
 51
90.000582
  0
LINE
  8
C
  6
CONTINUOUS
 62
     4
 10
262.529229
 20
215.001178
 11
262.529237
 21
215.001178
  0
ARC
  8
C
  6
CONTINUOUS
 62
     4
 10
261.029240
 20
215.001178
 40
1.499999
 50
269.999877
 51
359.999999
  0
LINE
  8
C
  6
CONTINUOUS
 62
     4
 10
261.029237
 20
213.501178
 11
257.841921
 21
214.031328
  0
LINE
  8
C
  6
CONTINUOUS
 62
     4
 10
257.841921
 20
214.031328
 11
257.841921
 21
213.031328
  0
LINE
  8
C
  6
CONTINUOUS
 62
     4
 10
257.841921
 20
213.031328
 11
261.029253
 21
212.501178
  0
ARC
  8
C
  6
CONTINUOUS
 62
     4
 10
261.029249
 20
215.001169
 40
2.499990
 50
270.000092
 51
0.000200
  0
LINE
  8
C
  6
CONTINUOUS
 62
     4
 10
263.529237
 20
215.001178
 11
263.529253
 21
215.001178
  0
LINE
  8
C
  6
CONTINUOUS
 62
     4
 10
256.529254
 20
192.501183
 11
262.529265
 21
192.501183
  0
ARC
  8
C
  6
CONTINUOUS
 62
     4
 10
262.529254
 20
193.501164
 40
0.999985
 50
270.000639
 51
0.001066
  0
LINE
  8
C
  6
CONTINUOUS
 62
     4
 10
263.529237
 20
193.501183
 11
263.529237
 21
203.501182
  0
ARC
  8
C
  6
CONTINUOUS
 62
     4
 10
261.529257
 20
203.501165
 40
1.999983
 50
0.000498
 51
90.000562
  0
LINE
  8
C
  6
CONTINUOUS
 62
     4
 10
261.529237
 20
205.501146
 11
258.170810
 21
203.595176
  0
LINE
  8
C
  6
CONTINUOUS
 62
     4
 10
258.170810
 20
203.595176
 11
258.505938
 21
202.652976
  0
LINE
  8
C
  6
CONTINUOUS
 62
     4
 10
258.505938
 20
202.652976
 11
261.529237
 21
204.501182
  0
ARC
  8
C
  6
CONTINUOUS
 62
     4
 10
261.529236
 20
203.501184
 40
0.999995
 50
359.999892
 51
89.999934
  0
LINE
  8
C
  6
CONTINUOUS
 62
     4
 10
262.529229
 20
203.501182
 11
262.529229
 21
193.501183
  0
LINE
  8
C
  6
CONTINUOUS
 62
     4
 10
262.529229
 20
193.501183
 11
256.529254
 21
193.501183
  0
ENDBLK
  8
0
  0
BLOCK
  8
KST
  2
B-10
 70
    66
 10
0.000000
 20
0.000000
 30
0.000000
  0
LINE
  8
KST
  6
CONTINUOUS
 62
     4
 10
290.929184
 20
194.983792
 11
307.029212
 21
194.983789
  0
LINE
  8
KST
  6
CONTINUOUS
 62
     4
 10
290.629184
 20
194.683792
 11
290.629184
 21
179.483941
  0
ARC
  8
KST
  6
CONTINUOUS
 62
     4
 10
290.929126
 20
194.683851
 40
0.300000
 50
89.988998
 51
180.011267
  0
LINE
  8
KST
  6
CONTINUOUS
 62
     4
 10
290.929184
 20
179.183941
 11
307.029212
 21
179.183938
  0
ARC
  8
KST
  6
CONTINUOUS
 62
     4
 10
290.929126
 20
179.483875
 40
0.300000
 50
179.987386
 51
270.011002
  0
LINE
  8
KST
  6
CONTINUOUS
 62
     4
 10
313.929212
 20
197.083801
 11
313.929212
 21
177.083923
  0
LINE
  8
KST
  6
CONTINUOUS
 62
     4
 10
313.529213
 20
177.083923
 11
314.129213
 21
177.083923
  0
LINE
  8
KST
  6
CONTINUOUS
 62
     4
 10
315.129215
 20
178.815973
 11
315.129215
 21
195.351751
  0
LINE
  8
KST
  6
CONTINUOUS
 62
     4
 10
314.129213
 20
197.083801
 11
313.529213
 21
197.083801
  0
LINE
  8
KST
  6
CONTINUOUS
 62
     4
 10
301.829336
 20
192.983797
 11
301.829375
 21
189.683800
  0
LINE
  8
KST
  6
CONTINUOUS
 62
     4
 10
301.829378
 20
184.483933
 11
301.829333
 21
181.183924
  0
LINE
  8
KST
  6
CONTINUOUS
 62
     4
 10
301.829333
 20
181.183924
 11
301.829333
 21
181.183924
  0
LINE
  8
KST
  6
CONTINUOUS
 62
     4
 10
301.829333
 20
181.183924
 11
301.829333
 21
185.383924
  0
LINE
  8
KST
  6
CONTINUOUS
 62
     4
 10
301.829336
 20
188.783803
 11
301.829336
 21
192.983797
  0
LINE
  8
KST
  6
CONTINUOUS
 62
     4
 10
301.829336
 20
192.983797
 11
301.829336
 21
192.983797
  0
LINE
  8
KST
  6
CONTINUOUS
 62
     4
 10
301.829333
 20
181.183924
 11
301.829333
 21
181.183921
  0
LINE
  8
KST
  6
CONTINUOUS
 62
     4
 10
301.829333
 20
181.183921
 11
313.529213
 21
181.183921
  0
LINE
  8
KST
  6
CONTINUOUS
 62
     4
 10
313.929212
 20
181.183921
 11
313.929212
 21
181.183924
  0
LINE
  8
KST
  6
CONTINUOUS
 62
     4
 10
313.929212
 20
181.183924
 11
301.829333
 21
181.183924
  0
LINE
  8
KST
  6
CONTINUOUS
 62
     4
 10
301.829336
 20
192.983797
 11
301.829336
 21
192.983797
  0
LINE
  8
KST
  6
CONTINUOUS
 62
     4
 10
301.829336
 20
192.983797
 11
313.529213
 21
192.983794
  0
LINE
  8
KST
  6
CONTINUOUS
 62
     4
 10
313.929212
 20
192.983794
 11
313.929212
 21
192.983794
  0
LINE
  8
KST
  6
CONTINUOUS
 62
     4
 10
313.929212
 20
192.983794
 11
301.829336
 21
192.983797
  0
LINE
  8
KST
  6
CONTINUOUS
 62
     4
 10
307.029212
 20
194.983789
 11
313.529213
 21
194.983789
  0
LINE
  8
KST
  6
CONTINUOUS
 62
     4
 10
307.029212
 20
179.183938
 11
313.529213
 21
179.183938
  0
LINE
  8
KST
  6
CONTINUOUS
 62
     4
 10
314.129213
 20
197.083801
 11
315.129215
 21
195.351751
  0
LINE
  8
KST
  6
CONTINUOUS
 62
     4
 10
315.129215
 20
178.815973
 11
314.129213
 21
177.083923
  0
LINE
  8
KST
  6
CONTINUOUS
 62
     4
 10
314.129213
 20
197.083801
 11
314.129213
 21
177.083923
  0
LINE
  8
KST
  6
CONTINUOUS
 62
     4
 10
315.129215
 20
193.733815
 11
315.629216
 21
193.233808
  0
LINE
  8
KST
  6
CONTINUOUS
 62
     4
 10
315.629216
 20
193.233808
 11
315.629216
 21
180.933970
  0
LINE
  8
KST
  6
CONTINUOUS
 62
     4
 10
315.629216
 20
180.933970
 11
315.129215
 21
180.433966
  0
LINE
  8
KST
  6
CONTINUOUS
 62
     4
 10
313.529213
 20
197.083801
 11
313.529213
 21
194.983789
  0
LINE
  8
KST
  6
CONTINUOUS
 62
     4
 10
313.529213
 20
179.183938
 11
313.529213
 21
177.083923
  0
LINE
  8
KST
  6
CONTINUOUS
 62
     4
 10
309.029255
 20
185.883922
 11
302.329334
 21
185.883922
  0
ARC
  8
KST
  6
CONTINUOUS
 62
     4
 10
302.329277
 20
185.383860
 40
0.500000
 50
89.993515
 51
179.992664
  0
LINE
  8
KST
  6
CONTINUOUS
 62
     4
 10
309.029255
 20
188.283805
 11
302.329334
 21
188.283802
  0
ARC
  8
KST
  6
CONTINUOUS
 62
     4
 10
302.329278
 20
188.783860
 40
0.500000
 50
180.006531
 51
270.006371
  0
ARC
  8
KST
  6
CONTINUOUS
 62
     4
 10
309.029312
 20
187.083861
 40
1.199999
 50
269.997123
 51
90.002733
  0
LINE
  8
KST
  6
DOT
 62
     2
 10
309.029252
 20
185.883922
 11
312.229205
 21
185.883922
  0
ARC
  8
KST
  6
DOT
 62
     2
 10
312.229265
 20
187.083859
 40
1.200000
 50
269.997116
 51
90.002884
  0
LINE
  8
KST
  6
DOT
 62
     2
 10
312.229205
 20
188.283802
 11
309.029252
 21
188.283805
  0
LINE
  8
KST
  6
CONTINUOUS
 62
     4
 10
310.654058
 20
186.083923
 11
313.929212
 21
186.083923
  0
ARC
  8
KST
  6
CONTINUOUS
 62
     4
 10
310.654119
 20
186.583860
 40
0.500000
 50
162.890510
 51
269.993058
  0
LINE
  8
KST
  6
CONTINUOUS
 62
     4
 10
310.654061
 20
188.083804
 11
313.929212
 21
188.083804
  0
ARC
  8
KST
  6
CONTINUOUS
 62
     4
 10
310.654119
 20
187.583861
 40
0.500000
 50
90.006633
 51
197.108824
  0
LINE
  8
KST
  6
BORDER
 62
     3
 10
328.586393
 20
187.083862
 11
298.444472
 21
187.083862
  0
LINE
  8
KST
  6
BORDER
 62
     3
 10
298.444472
 20
187.083862
 11
288.849158
 21
187.083862
  0
LINE
  8
KST
  6
CONTINUOUS
 62
     4
 10
302.829377
 20
182.984203
 11
312.429218
 21
182.984242
  0
ARC
  8
KST
  6
CONTINUOUS
 62
     4
 10
312.429271
 20
183.984178
 40
1.000000
 50
269.996949
 51
0.003778
  0
LINE
  8
KST
  6
CONTINUOUS
 62
     4
 10
313.429211
 20
183.984244
 11
313.429202
 21
186.083923
  0
LINE
  8
KST
  6
CONTINUOUS
 62
     4
 10
313.429199
 20
188.083804
 11
313.429196
 21
190.183894
  0
ARC
  8
KST
  6
CONTINUOUS
 62
     4
 10
312.429254
 20
190.183949
 40
1.000000
 50
359.996830
 51
90.003437
  0
LINE
  8
KST
  6
CONTINUOUS
 62
     4
 10
312.429194
 20
191.183893
 11
302.829344
 21
191.183881
  0
ARC
  8
KST
  6
CONTINUOUS
 62
     4
 10
302.829284
 20
192.183939
 40
1.000000
 50
180.004088
 51
270.003450
  0
ARC
  8
KST
  6
CONTINUOUS
 62
     4
 10
302.829331
 20
181.984139
 40
1.000000
 50
89.997364
 51
179.995591
  0
LINE
  8
KST
  6
DOT
 62
     2
 10
290.629184
 20
180.983977
 11
301.829384
 21
180.983977
  0
LINE
  8
KST
  6
DOT
 62
     2
 10
301.829384
 20
180.983977
 11
301.829333
 21
181.183924
  0
LINE
  8
KST
  6
DOT
 62
     2
 10
301.829390
 20
185.391427
 11
301.829396
 21
188.776072
  0
LINE
  8
KST
  6
DOT
 62
     2
 10
301.829336
 20
192.983797
 11
301.829402
 21
193.183807
  0
LINE
  8
KST
  6
DOT
 62
     2
 10
301.829402
 20
193.183807
 11
290.629184
 21
193.183807
  0
LINE
  8
KST
  6
DOT
 62
     2
 10
301.829402
 20
194.083810
 11
301.829402
 21
194.983789
  0
LINE
  8
KST
  6
DOT
 62
     2
 10
301.829381
 20
179.183938
 11
301.829384
 21
180.083959
  0
LINE
  8
KST
  6
DOT
 62
     2
 10
300.929375
 20
193.483807
 11
300.929375
 21
193.783810
  0
ARC
  8
KST
  6
DOT
 62
     2
 10
301.229317
 20
193.483865
 40
0.300000
 50
180.011090
 51
270.010999
  0
LINE
  8
KST
  6
DOT
 62
     2
 10
301.229375
 20
194.083810
 11
301.829402
 21
194.083810
  0
ARC
  8
KST
  6
DOT
 62
     2
 10
301.229317
 20
193.783867
 40
0.300000
 50
89.988997
 51
180.010899
  0
LINE
  8
KST
  6
DOT
 62
     2
 10
301.829384
 20
180.083959
 11
301.229381
 21
180.083959
  0
LINE
  8
KST
  6
DOT
 62
     2
 10
300.929381
 20
180.383959
 11
300.929381
 21
180.683977
  0
ARC
  8
KST
  6
DOT
 62
     2
 10
301.229324
 20
180.683914
 40
0.300000
 50
89.989192
 51
179.987976
  0
ARC
  8
KST
  6
DOT
 62
     2
 10
301.229324
 20
180.383896
 40
0.300000
 50
179.987976
 51
270.010813
  0
LINE
  8
KST
  6
DOT
 62
     2
 10
301.229375
 20
194.083810
 11
290.629187
 21
194.083810
  0
LINE
  8
KST
  6
DOT
 62
     2
 10
301.229381
 20
180.083959
 11
290.629187
 21
180.083959
  0
LINE
  8
KST
  6
CONTINUOUS
 62
     4
 10
302.829335
 20
184.683916
 11
312.429209
 21
184.683916
  0
ARC
  8
KST
  6
CONTINUOUS
 62
     4
 10
302.829277
 20
183.683854
 40
1.000000
 50
89.996700
 51
179.996393
  0
ARC
  8
KST
  6
CONTINUOUS
 62
     4
 10
312.429266
 20
185.683854
 40
1.000000
 50
269.996719
 51
0.003836
  0
LINE
  8
KST
  6
CONTINUOUS
 62
     4
 10
312.429197
 20
189.483790
 11
302.829335
 21
189.483790
  0
ARC
  8
KST
  6
CONTINUOUS
 62
     4
 10
302.829278
 20
190.483845
 40
1.000000
 50
180.003212
 51
270.003243
  0
ARC
  8
KST
  6
CONTINUOUS
 62
     4
 10
312.429257
 20
188.483845
 40
1.000000
 50
359.996903
 51
90.003420
  0
LINE
  8
KST
  6
DOT
 62
     2
 10
313.429202
 20
186.083923
 11
313.429199
 21
188.083804
  0
LINE
  8
KST
  6
DOT
 62
     2
 10
312.429194
 20
190.583881
 11
302.829356
 21
190.583866
  0
LINE
  8
KST
  6
DOT
 62
     2
 10
302.829353
 20
183.583918
 11
312.429209
 21
183.583918
  0
ARC
  8
KST
  6
DOT
 62
     2
 10
312.429269
 20
184.583854
 40
1.000000
 50
269.996572
 51
0.003779
  0
ARC
  8
KST
  6
DOT
 62
     2
 10
302.829297
 20
182.583854
 40
1.000000
 50
89.996818
 51
179.996451
  0
ARC
  8
KST
  6
DOT
 62
     2
 10
302.829298
 20
191.583923
 40
1.000000
 50
180.003998
 51
270.003350
  0
ARC
  8
KST
  6
DOT
 62
     2
 10
312.429256
 20
189.583938
 40
1.000000
 50
359.996819
 51
90.003526
  0
LINE
  8
KST
  6
BORDER
 62
     3
 10
290.629187
 20
187.083862
 11
280.579961
 21
187.083862
  0
LINE
  8
KST
  6
CONTINUOUS
 62
     4
 10
284.629100
 20
179.883928
 11
284.629097
 21
184.183927
  0
LINE
  8
KST
  6
CONTINUOUS
 62
     4
 10
284.629097
 20
186.383926
 11
284.629097
 21
187.783804
  0
LINE
  8
KST
  6
CONTINUOUS
 62
     4
 10
284.629097
 20
189.983806
 11
284.629100
 21
194.283802
  0
ARC
  8
KST
  6
CONTINUOUS
 62
     4
 10
285.329043
 20
194.283862
 40
0.700000
 50
89.995427
 51
180.004927
  0
LINE
  8
KST
  6
CONTINUOUS
 62
     4
 10
285.329099
 20
194.983804
 11
290.629187
 21
194.983804
  0
LINE
  8
KST
  6
CONTINUOUS
 62
     4
 10
290.629187
 20
179.183929
 11
285.329099
 21
179.183929
  0
ARC
  8
KST
  6
CONTINUOUS
 62
     4
 10
285.329043
 20
179.883862
 40
0.700000
 50
179.994612
 51
270.004573
  0
ARC
  8
KST
  6
CONTINUOUS
 62
     4
 10
290.429134
 20
179.383867
 40
0.200000
 50
270.014880
 51
0.017222
  0
ARC
  8
KST
  6
CONTINUOUS
 62
     4
 10
290.429133
 20
194.783858
 40
0.200000
 50
359.984190
 51
89.984834
  0
LINE
  8
KST
  6
CONTINUOUS
 62
     4
 10
301.829336
 20
184.683928
 11
278.129102
 21
184.683928
  0
ARC
  8
KST
  6
CONTINUOUS
 62
     4
 10
278.129049
 20
185.183866
 40
0.500000
 50
179.992745
 51
270.006106
  0
ARC
  8
KST
  6
CONTINUOUS
 62
     4
 10
284.129046
 20
184.183865
 40
0.500000
 50
0.007113
 51
89.993896
  0
LINE
  8
KST
  6
CONTINUOUS
 62
     4
 10
277.629101
 20
185.183929
 11
277.629101
 21
185.383927
  0
LINE
  8
KST
  6
CONTINUOUS
 62
     4
 10
278.129102
 20
185.883928
 11
301.829336
 21
185.883928
  0
ARC
  8
KST
  6
CONTINUOUS
 62
     4
 10
278.129049
 20
185.383867
 40
0.500000
 50
89.993936
 51
179.993105
  0
ARC
  8
KST
  6
CONTINUOUS
 62
     4
 10
284.129046
 20
186.383865
 40
0.500000
 50
270.006106
 51
0.006998
  0
LINE
  8
KST
  6
CONTINUOUS
 62
     4
 10
301.829336
 20
188.283805
 11
278.129102
 21
188.283805
  0
ARC
  8
KST
  6
CONTINUOUS
 62
     4
 10
284.129046
 20
187.783861
 40
0.500000
 50
359.993478
 51
89.993894
  0
LINE
  8
KST
  6
CONTINUOUS
 62
     4
 10
277.629101
 20
188.783806
 11
277.629101
 21
188.983807
  0
ARC
  8
KST
  6
CONTINUOUS
 62
     4
 10
278.129049
 20
188.783861
 40
0.500000
 50
180.006323
 51
270.006064
  0
ARC
  8
KST
  6
CONTINUOUS
 62
     4
 10
278.129049
 20
188.983862
 40
0.500000
 50
89.993894
 51
180.006277
  0
LINE
  8
KST
  6
CONTINUOUS
 62
     4
 10
278.129102
 20
189.483805
 11
301.829336
 21
189.483805
  0
ARC
  8
KST
  6
CONTINUOUS
 62
     4
 10
284.129046
 20
189.983861
 40
0.500000
 50
270.006104
 51
359.993707
  0
LINE
  8
KST
  6
CONTINUOUS
 62
     4
 10
284.587355
 20
186.183928
 11
278.729096
 21
186.183928
  0
LINE
  8
KST
  6
CONTINUOUS
 62
     4
 10
278.729096
 20
187.983808
 11
284.587355
 21
187.983805
  0
LINE
  8
KST
  6
CONTINUOUS
 62
     4
 10
284.129099
 20
181.393030
 11
278.429096
 21
184.683928
  0
ARC
  8
KST
  6
CONTINUOUS
 62
     4
 10
283.629047
 20
180.526942
 40
1.000000
 50
0.003586
 51
59.999190
  0
LINE
  8
KST
  6
CONTINUOUS
 62
     4
 10
278.429096
 20
189.483805
 11
284.129099
 21
192.774703
  0
ARC
  8
KST
  6
CONTINUOUS
 62
     4
 10
283.629047
 20
193.640784
 40
1.000000
 50
300.000988
 51
359.996771
  0
LINE
  8
KST
  6
CONTINUOUS
 62
     4
 10
278.729096
 20
187.983805
 11
278.429096
 21
188.283805
  0
LINE
  8
KST
  6
CONTINUOUS
 62
     4
 10
278.729096
 20
186.183928
 11
278.429096
 21
185.883928
  0
LINE
  8
KST
  6
CONTINUOUS
 62
     3
 10
290.629187
 20
179.383927
 11
290.629184
 21
194.783803
  0
ARC
  8
KST
  6
CONTINUOUS
 62
     4
 10
315.183012
 20
183.683919
 40
1.000000
 50
296.502054
 51
330.001294
  0
ARC
  8
KST
  6
CONTINUOUS
 62
     4
 10
315.183002
 20
190.483828
 40
1.000000
 50
29.998846
 51
63.496813
  0
LINE
  8
KST
  6
CONTINUOUS
 62
     4
 10
317.030456
 20
184.883947
 11
318.534407
 21
184.883950
  0
ARC
  8
KST
  6
CONTINUOUS
 62
     4
 10
318.534471
 20
185.383885
 40
0.500000
 50
269.992695
 51
344.538835
  0
ARC
  8
KST
  6
CONTINUOUS
 62
     4
 10
311.229267
 20
187.083890
 40
8.000000
 50
346.751968
 51
13.247650
  0
ARC
  8
KST
  6
CONTINUOUS
 62
     4
 10
318.534474
 20
188.783883
 40
0.500000
 50
15.461543
 51
90.007293
  0
LINE
  8
KST
  6
CONTINUOUS
 62
     4
 10
318.534410
 20
189.283822
 11
317.030438
 21
189.283819
  0
LINE
  8
KST
  6
CONTINUOUS
 62
     4
 10
317.030438
 20
189.283819
 11
316.048970
 21
190.983772
  0
LINE
  8
KST
  6
CONTINUOUS
 62
     4
 10
316.048979
 20
183.183979
 11
317.030456
 21
184.883947
  0
LINE
  8
KST
  6
CONTINUOUS
 62
     4
 10
317.030459
 20
184.883947
 11
317.030441
 21
189.283822
  0
ENDBLK
  8
0
  0
BLOCK
  8
C
  2
B-11
 70
    66
 10
0.000000
 20
0.000000
 30
0.000000
  0
LINE
  8
C
  6
CONTINUOUS
 62
     7
 10
338.529264
 20
217.501209
 11
338.529264
 21
221.601210
  0
LINE
  8
C
  6
CONTINUOUS
 62
     7
 10
338.529264
 20
221.601210
 11
361.229199
 21
221.601212
  0
LINE
  8
C
  6
CONTINUOUS
 62
     7
 10
339.829266
 20
221.601210
 11
339.829266
 21
224.318108
  0
LINE
  8
C
  6
CONTINUOUS
 62
     7
 10
340.647801
 20
225.501212
 11
359.728995
 21
225.501212
  0
LINE
  8
C
  6
CONTINUOUS
 62
     7
 10
359.728995
 20
225.501212
 11
360.229200
 21
225.501212
  0
LINE
  8
C
  6
CONTINUOUS
 62
     7
 10
360.229200
 20
225.501212
 11
360.410664
 21
225.501212
  0
ARC
  8
C
  6
CONTINUOUS
 62
     7
 10
340.647769
 20
225.001238
 40
0.500000
 50
89.996315
 51
155.001363
  0
LINE
  8
C
  6
CONTINUOUS
 62
     7
 10
361.229199
 20
224.318111
 11
361.229199
 21
223.501196
  0
ARC
  8
C
  6
CONTINUOUS
 62
     7
 10
360.729233
 20
224.318140
 40
0.500000
 50
359.996733
 51
24.998809
  0
LINE
  8
C
  6
CONTINUOUS
 62
     7
 10
338.529264
 20
217.501209
 11
360.479199
 21
217.501187
  0
LINE
  8
C
  6
CONTINUOUS
 62
     7
 10
340.579266
 20
217.501209
 11
341.157789
 21
184.357639
  0
LINE
  8
C
  6
CONTINUOUS
 62
     7
 10
343.657407
 20
181.901269
 11
357.401055
 21
181.901269
  0
ARC
  8
C
  6
CONTINUOUS
 62
     7
 10
357.401089
 20
184.401238
 40
2.500000
 50
269.999216
 51
359.000710
  0
ARC
  8
C
  6
CONTINUOUS
 62
     7
 10
343.657376
 20
184.401238
 40
2.500000
 50
180.999288
 51
270.000711
  0
LINE
  8
C
  6
CONTINUOUS
 62
     7
 10
359.900673
 20
184.357639
 11
360.479199
 21
217.501187
  0
LINE
  8
C
  6
CONTINUOUS
 62
     7
 10
360.479199
 20
217.501184
 11
370.529199
 21
217.501208
  0
LINE
  8
C
  6
CONTINUOUS
 62
     7
 10
370.529193
 20
223.501205
 11
361.229199
 21
223.501154
  0
LINE
  8
C
  6
DOT
 62
     2
 10
361.229199
 20
223.501154
 11
359.929197
 21
223.501148
  0
LINE
  8
C
  6
DOT
 62
     2
 10
359.929197
 20
223.501148
 11
359.729199
 21
223.501145
  0
LINE
  8
C
  6
CONTINUOUS
 62
     7
 10
370.529193
 20
223.501205
 11
370.529199
 21
217.501208
  0
LINE
  8
C
  6
BORDER
 62
     3
 10
350.529264
 20
183.401269
 11
350.529264
 21
231.270554
  0
CIRCLE
  8
C
  6
CONTINUOUS
 62
     7
 10
350.529233
 20
205.501299
 40
3.000000
  0
LINE
  8
C
  6
BORDER
 62
     3
 10
347.029266
 20
205.501327
 11
347.529264
 21
205.501327
  0
LINE
  8
C
  6
CONTINUOUS
 62
     7
 10
347.529264
 20
205.501327
 11
350.529264
 21
205.501327
  0
LINE
  8
C
  6
CONTINUOUS
 62
     7
 10
350.529264
 20
205.501327
 11
350.829090
 21
205.501327
  0
LINE
  8
C
  6
CONTINUOUS
 62
     7
 10
352.429089
 20
205.501327
 11
353.529264
 21
205.501327
  0
LINE
  8
C
  6
BORDER
 62
     3
 10
353.529264
 20
205.501327
 11
354.029265
 21
205.501327
  0
LINE
  8
C
  6
CONTINUOUS
 62
     7
 10
345.529266
 20
217.501200
 11
345.529266
 21
206.501326
  0
ARC
  8
C
  6
CONTINUOUS
 62
     7
 10
346.529233
 20
206.501299
 40
1.000001
 50
179.998447
 51
270.001854
  0
LINE
  8
C
  6
CONTINUOUS
 62
     7
 10
346.529265
 20
205.501327
 11
347.529264
 21
205.501327
  0
LINE
  8
C
  6
CONTINUOUS
 62
     7
 10
353.529264
 20
205.501327
 11
354.529218
 21
205.501327
  0
ARC
  8
C
  6
CONTINUOUS
 62
     7
 10
354.529233
 20
206.501299
 40
1.000000
 50
269.999161
 51
0.001667
  0
LINE
  8
C
  6
CONTINUOUS
 62
     7
 10
355.529199
 20
206.501328
 11
355.529199
 21
217.501190
  0
LINE
  8
C
  6
CONTINUOUS
 62
     7
 10
361.229199
 20
223.501154
 11
361.229199
 21
221.601212
  0
LINE
  8
C
  6
CONTINUOUS
 62
     7
 10
361.229199
 20
221.601212
 11
362.529198
 21
221.601212
  0
LINE
  8
C
  6
CONTINUOUS
 62
     7
 10
362.529198
 20
221.601212
 11
362.529198
 21
217.501190
  0
LINE
  8
C
  6
CONTINUOUS
 62
     7
 10
348.529266
 20
221.601212
 11
348.529266
 21
223.801211
  0
LINE
  8
C
  6
CONTINUOUS
 62
     7
 10
348.529266
 20
223.801211
 11
352.529265
 21
223.801211
  0
LINE
  8
C
  6
CONTINUOUS
 62
     7
 10
352.529265
 20
223.801211
 11
352.529265
 21
221.601212
  0
LINE
  8
C
  6
CONTINUOUS
 62
     7
 10
360.863817
 20
225.212519
 11
361.182354
 21
224.529422
  0
ARC
  8
C
  6
CONTINUOUS
 62
     7
 10
360.410698
 20
225.001238
 40
0.500000
 50
24.998748
 51
90.003947
  0
LINE
  8
C
  6
CONTINUOUS
 62
     7
 10
339.876111
 20
224.529416
 11
340.194648
 21
225.212519
  0
ARC
  8
C
  6
CONTINUOUS
 62
     7
 10
340.329233
 20
224.318135
 40
0.500000
 50
155.001326
 51
180.003056
  0
LINE
  8
C
  6
CONTINUOUS
 62
     3
 10
339.876111
 20
224.529413
 11
361.182351
 21
224.529419
  0
LINE
  8
C
  6
CONTINUOUS
 62
     3
 10
339.829263
 20
224.318105
 11
361.229199
 21
224.318111
  0
ARC
  8
C
  6
DOT
 62
     2
 10
344.729061
 20
188.501239
 40
0.850000
 50
89.997987
 51
270.002013
  0
LINE
  8
C
  6
DOT
 62
     2
 10
344.041707
 20
188.001271
 11
343.529091
 21
188.001271
  0
ARC
  8
C
  6
DOT
 62
     2
 10
343.529061
 20
188.501239
 40
0.500000
 50
179.996190
 51
270.003422
  0
ARC
  8
C
  6
DOT
 62
     2
 10
343.529061
 20
188.501239
 40
0.500000
 50
89.996579
 51
179.996190
  0
LINE
  8
C
  6
DOT
 62
     2
 10
343.529091
 20
189.001273
 11
344.041707
 21
189.001273
  0
LINE
  8
C
  6
BORDER
 62
     3
 10
342.846711
 20
188.501272
 11
344.947434
 21
188.501272
  0
ARC
  8
C
  6
DOT
 62
     2
 10
344.729061
 20
220.201239
 40
0.850000
 50
89.997987
 51
270.002013
  0
LINE
  8
C
  6
DOT
 62
     2
 10
344.041707
 20
219.701211
 11
343.529091
 21
219.701211
  0
ARC
  8
C
  6
DOT
 62
     2
 10
343.529061
 20
220.201239
 40
0.500000
 50
180.003410
 51
270.003421
  0
ARC
  8
C
  6
DOT
 62
     2
 10
343.529061
 20
220.201239
 40
0.500000
 50
89.996578
 51
180.003410
  0
LINE
  8
C
  6
DOT
 62
     2
 10
343.529091
 20
220.701210
 11
344.041707
 21
220.701210
  0
LINE
  8
C
  6
BORDER
 62
     3
 10
342.846711
 20
220.201209
 11
344.947434
 21
220.201209
  0
ARC
  8
C
  6
DOT
 62
     2
 10
344.729061
 20
204.701239
 40
0.850000
 50
89.997987
 51
270.002013
  0
LINE
  8
C
  6
DOT
 62
     2
 10
344.041707
 20
204.201271
 11
343.529091
 21
204.201271
  0
ARC
  8
C
  6
DOT
 62
     2
 10
343.529061
 20
204.701239
 40
0.500000
 50
179.996190
 51
270.003422
  0
ARC
  8
C
  6
DOT
 62
     2
 10
343.529061
 20
204.701239
 40
0.500000
 50
89.996579
 51
179.996190
  0
LINE
  8
C
  6
DOT
 62
     2
 10
343.529091
 20
205.201273
 11
344.041707
 21
205.201273
  0
LINE
  8
C
  6
BORDER
 62
     3
 10
342.846711
 20
204.701272
 11
344.947434
 21
204.701272
  0
ARC
  8
C
  6
DOT
 62
     2
 10
344.729061
 20
209.701239
 40
0.850000
 50
89.997987
 51
270.002013
  0
LINE
  8
C
  6
DOT
 62
     2
 10
344.041707
 20
209.201211
 11
343.529091
 21
209.201211
  0
ARC
  8
C
  6
DOT
 62
     2
 10
343.529061
 20
209.701239
 40
0.500000
 50
180.003410
 51
270.003421
  0
ARC
  8
C
  6
DOT
 62
     2
 10
343.529061
 20
209.701239
 40
0.500000
 50
89.996578
 51
180.003410
  0
LINE
  8
C
  6
DOT
 62
     2
 10
343.529091
 20
210.201210
 11
344.041707
 21
210.201210
  0
LINE
  8
C
  6
BORDER
 62
     3
 10
342.846711
 20
209.701209
 11
344.947434
 21
209.701209
  0
ARC
  8
C
  6
DOT
 62
     2
 10
344.729061
 20
202.201239
 40
0.850000
 50
89.997987
 51
270.002013
  0
LINE
  8
C
  6
DOT
 62
     2
 10
344.041707
 20
201.701272
 11
343.529091
 21
201.701272
  0
ARC
  8
C
  6
DOT
 62
     2
 10
343.529061
 20
202.201239
 40
0.500000
 50
179.996076
 51
270.003422
  0
ARC
  8
C
  6
DOT
 62
     2
 10
343.529061
 20
202.201239
 40
0.500000
 50
89.996579
 51
179.996076
  0
LINE
  8
C
  6
DOT
 62
     2
 10
343.529091
 20
202.701271
 11
344.041707
 21
202.701271
  0
LINE
  8
C
  6
BORDER
 62
     3
 10
342.846711
 20
202.201273
 11
344.947434
 21
202.201273
  0
ARC
  8
C
  6
DOT
 62
     2
 10
344.729061
 20
199.701239
 40
0.850000
 50
89.997987
 51
270.002013
  0
LINE
  8
C
  6
DOT
 62
     2
 10
344.041707
 20
199.201273
 11
343.529091
 21
199.201273
  0
ARC
  8
C
  6
DOT
 62
     2
 10
343.529061
 20
199.701239
 40
0.500000
 50
179.996305
 51
270.003422
  0
ARC
  8
C
  6
DOT
 62
     2
 10
343.529061
 20
199.701239
 40
0.500000
 50
89.996579
 51
179.996305
  0
LINE
  8
C
  6
DOT
 62
     2
 10
343.529091
 20
200.201272
 11
344.041707
 21
200.201272
  0
LINE
  8
C
  6
BORDER
 62
     3
 10
342.846711
 20
199.701271
 11
344.947434
 21
199.701271
  0
LINE
  8
C
  6
DOT
 62
     2
 10
344.729091
 20
186.701272
 11
346.329093
 21
186.701272
  0
LINE
  8
C
  6
DOT
 62
     2
 10
346.329093
 20
186.701272
 11
346.329090
 21
225.501212
  0
LINE
  8
C
  6
CONTINUOUS
 62
     7
 10
346.329090
 20
225.501212
 11
346.329090
 21
225.802958
  0
LINE
  8
C
  6
DOT
 62
     2
 10
346.329090
 20
225.802958
 11
346.329093
 21
226.701212
  0
LINE
  8
C
  6
DOT
 62
     2
 10
346.329093
 20
226.701212
 11
346.029090
 21
226.701212
  0
LINE
  8
C
  6
CONTINUOUS
 62
     7
 10
346.029090
 20
226.701212
 11
344.729091
 21
226.701212
  0
LINE
  8
C
  6
CONTINUOUS
 62
     7
 10
344.729091
 20
226.701212
 11
344.729091
 21
225.501212
  0
LINE
  8
C
  6
DOT
 62
     2
 10
344.729091
 20
225.501212
 11
344.729091
 21
186.701272
  0
LINE
  8
C
  6
DOT
 62
     2
 10
350.829093
 20
186.901273
 11
352.429089
 21
186.901273
  0
LINE
  8
C
  6
DOT
 62
     2
 10
352.429089
 20
186.901273
 11
352.429089
 21
203.179546
  0
LINE
  8
C
  6
CONTINUOUS
 62
     7
 10
352.429089
 20
203.179546
 11
352.429089
 21
205.501327
  0
LINE
  8
C
  6
CONTINUOUS
 62
     7
 10
352.429089
 20
205.501327
 11
352.429089
 21
206.801214
  0
LINE
  8
C
  6
CONTINUOUS
 62
     7
 10
352.429089
 20
206.801214
 11
352.429089
 21
207.301215
  0
LINE
  8
C
  6
CONTINUOUS
 62
     7
 10
352.429089
 20
207.301215
 11
352.429089
 21
207.823053
  0
LINE
  8
C
  6
DOT
 62
     2
 10
352.429089
 20
207.823053
 11
352.429089
 21
208.801212
  0
LINE
  8
C
  6
DOT
 62
     2
 10
352.429089
 20
208.801212
 11
350.829093
 21
208.801212
  0
LINE
  8
C
  6
DOT
 62
     2
 10
350.829093
 20
208.801212
 11
350.829090
 21
208.486254
  0
LINE
  8
C
  6
CONTINUOUS
 62
     7
 10
350.829090
 20
208.486254
 11
350.829090
 21
207.301215
  0
LINE
  8
C
  6
CONTINUOUS
 62
     7
 10
350.829090
 20
207.301215
 11
350.829090
 21
206.801214
  0
LINE
  8
C
  6
CONTINUOUS
 62
     7
 10
350.829090
 20
206.801214
 11
350.829090
 21
205.501327
  0
LINE
  8
C
  6
CONTINUOUS
 62
     7
 10
350.829090
 20
205.501327
 11
350.829090
 21
202.516348
  0
LINE
  8
C
  6
DOT
 62
     2
 10
350.829090
 20
202.516348
 11
350.829093
 21
186.901273
  0
LINE
  8
C
  6
DOT
 62
     2
 10
346.329093
 20
213.301209
 11
347.829093
 21
213.301209
  0
LINE
  8
C
  6
DOT
 62
     2
 10
347.829093
 20
213.301209
 11
351.029091
 21
213.301211
  0
LINE
  8
C
  6
DOT
 62
     2
 10
351.029091
 20
213.301211
 11
356.329029
 21
213.301211
  0
LINE
  8
C
  6
DOT
 62
     2
 10
356.329029
 20
213.301211
 11
356.329029
 21
188.301271
  0
LINE
  8
C
  6
DOT
 62
     2
 10
356.329029
 20
188.301271
 11
354.087348
 21
188.301271
  0
LINE
  8
C
  6
DOT
 62
     2
 10
354.087348
 20
188.301271
 11
353.255226
 21
188.301271
  0
LINE
  8
C
  6
DOT
 62
     2
 10
353.255226
 20
188.301271
 11
352.429089
 21
188.301271
  0
LINE
  8
C
  6
DOT
 62
     2
 10
346.329093
 20
188.301271
 11
350.829093
 21
188.301271
  0
LINE
  8
C
  6
DOT
 62
     2
 10
346.329093
 20
200.801272
 11
350.829093
 21
200.801272
  0
LINE
  8
C
  6
DOT
 62
     2
 10
352.429089
 20
200.801272
 11
356.329029
 21
200.801272
  0
LINE
  8
C
  6
DOT
 62
     2
 10
346.329093
 20
217.501209
 11
359.329029
 21
217.501211
  0
ARC
  8
C
  6
DOT
 62
     2
 10
359.329061
 20
217.001239
 40
0.500000
 50
359.997048
 51
90.003683
  0
LINE
  8
C
  6
DOT
 62
     2
 10
359.829030
 20
217.001213
 11
359.829030
 21
207.801215
  0
ARC
  8
C
  6
DOT
 62
     2
 10
359.329061
 20
207.801239
 40
0.500000
 50
269.996317
 51
359.997278
  0
LINE
  8
C
  6
DOT
 62
     2
 10
359.329029
 20
207.301217
 11
356.329029
 21
207.301217
  0
LINE
  8
C
  6
DOT
 62
     2
 10
356.329029
 20
206.801216
 11
357.429030
 21
206.801216
  0
ARC
  8
C
  6
DOT
 62
     2
 10
357.429061
 20
206.301239
 40
0.500000
 50
0.003924
 51
90.003569
  0
LINE
  8
C
  6
DOT
 62
     2
 10
357.929031
 20
206.301273
 11
357.929031
 21
200.801272
  0
LINE
  8
C
  6
DOT
 62
     2
 10
357.429030
 20
200.301271
 11
356.329029
 21
200.301271
  0
ARC
  8
C
  6
DOT
 62
     2
 10
357.429061
 20
200.801239
 40
0.500000
 50
269.996431
 51
0.003810
  0
LINE
  8
C
  6
DOT
 62
     2
 10
346.329093
 20
207.301215
 11
348.129216
 21
207.301215
  0
LINE
  8
C
  6
CONTINUOUS
 62
     7
 10
348.129216
 20
207.301215
 11
350.529264
 21
207.301215
  0
LINE
  8
C
  6
CONTINUOUS
 62
     7
 10
350.529264
 20
207.301215
 11
350.829090
 21
207.301215
  0
LINE
  8
C
  6
CONTINUOUS
 62
     7
 10
352.429089
 20
207.301215
 11
352.929309
 21
207.301215
  0
LINE
  8
C
  6
DOT
 62
     2
 10
352.929309
 20
207.301215
 11
356.329029
 21
207.301217
  0
LINE
  8
C
  6
DOT
 62
     2
 10
346.329093
 20
206.801214
 11
347.825529
 21
206.801214
  0
LINE
  8
C
  6
CONTINUOUS
 62
     7
 10
347.825529
 20
206.801214
 11
350.529264
 21
206.801214
  0
LINE
  8
C
  6
CONTINUOUS
 62
     7
 10
350.529264
 20
206.801214
 11
350.829090
 21
206.801214
  0
LINE
  8
C
  6
CONTINUOUS
 62
     7
 10
352.429089
 20
206.801214
 11
353.232993
 21
206.801214
  0
LINE
  8
C
  6
DOT
 62
     2
 10
353.232993
 20
206.801214
 11
356.329029
 21
206.801216
  0
LINE
  8
C
  6
DOT
 62
     2
 10
346.329093
 20
200.301271
 11
356.329029
 21
200.301271
  0
LINE
  8
C
  6
DOT
 62
     2
 10
346.329093
 20
218.101209
 11
352.929090
 21
218.101211
  0
LINE
  8
C
  6
DOT
 62
     2
 10
352.929090
 20
218.101211
 11
352.929090
 21
223.401212
  0
LINE
  8
C
  6
DOT
 62
     2
 10
350.429091
 20
226.401212
 11
350.927634
 21
225.802958
  0
LINE
  8
C
  6
CONTINUOUS
 62
     7
 10
350.927634
 20
225.802958
 11
351.179091
 21
225.501212
  0
LINE
  8
C
  6
DOT
 62
     2
 10
351.179091
 20
225.501212
 11
352.929090
 21
223.401212
  0
LINE
  8
C
  6
DOT
 62
     2
 10
346.329093
 20
218.101209
 11
346.329093
 21
224.669159
  0
LINE
  8
C
  6
DOT
 62
     2
 10
346.329093
 20
224.669159
 11
346.809474
 21
225.501212
  0
LINE
  8
C
  6
CONTINUOUS
 62
     7
 10
346.809474
 20
225.501212
 11
346.983690
 21
225.802958
  0
LINE
  8
C
  6
DOT
 62
     2
 10
346.983690
 20
225.802958
 11
347.329092
 21
226.401212
  0
LINE
  8
C
  6
DOT
 62
     2
 10
347.329092
 20
226.401212
 11
350.429091
 21
226.401212
  0
ARC
  8
C
  6
DOT
 62
     2
 10
344.729061
 20
189.201239
 40
0.850000
 50
89.997987
 51
193.607216
  0
ARC
  8
C
  6
DOT
 62
     2
 10
343.529061
 20
189.201239
 40
0.500000
 50
179.996305
 51
224.426791
  0
ARC
  8
C
  6
DOT
 62
     2
 10
343.529061
 20
189.201239
 40
0.500000
 50
89.996579
 51
179.996305
  0
LINE
  8
C
  6
DOT
 62
     2
 10
343.529091
 20
189.701272
 11
344.041707
 21
189.701272
  0
LINE
  8
C
  6
BORDER
 62
     3
 10
342.846711
 20
189.201271
 11
344.947434
 21
189.201271
  0
LINE
  8
C
  6
DOT
 62
     2
 10
346.329093
 20
196.401271
 11
352.929090
 21
196.401271
  0
LINE
  8
C
  6
DOT
 62
     2
 10
352.929090
 20
196.401271
 11
352.929090
 21
191.101273
  0
LINE
  8
C
  6
DOT
 62
     2
 10
350.429091
 20
188.101273
 11
350.595759
 21
188.301271
  0
LINE
  8
C
  6
DOT
 62
     2
 10
350.595759
 20
188.301271
 11
350.829093
 21
188.581273
  0
LINE
  8
C
  6
DOT
 62
     2
 10
350.829093
 20
188.581273
 11
352.929090
 21
191.101273
  0
LINE
  8
C
  6
DOT
 62
     2
 10
346.329093
 20
196.401271
 11
346.329093
 21
189.833323
  0
LINE
  8
C
  6
DOT
 62
     2
 10
346.329093
 20
189.833323
 11
347.213622
 21
188.301271
  0
LINE
  8
C
  6
DOT
 62
     2
 10
347.213622
 20
188.301271
 11
347.329092
 21
188.101273
  0
LINE
  8
C
  6
DOT
 62
     2
 10
347.329092
 20
188.101273
 11
350.429091
 21
188.101273
  0
ARC
  8
C
  6
DOT
 62
     2
 10
344.729061
 20
211.701239
 40
0.850000
 50
89.997987
 51
270.002013
  0
LINE
  8
C
  6
DOT
 62
     2
 10
344.041707
 20
211.201209
 11
343.529091
 21
211.201209
  0
ARC
  8
C
  6
DOT
 62
     2
 10
343.529061
 20
211.701239
 40
0.500000
 50
180.003295
 51
270.003421
  0
ARC
  8
C
  6
DOT
 62
     2
 10
343.529061
 20
211.701239
 40
0.500000
 50
89.996578
 51
180.003295
  0
LINE
  8
C
  6
DOT
 62
     2
 10
343.529091
 20
212.201211
 11
344.041707
 21
212.201211
  0
LINE
  8
C
  6
BORDER
 62
     3
 10
342.846711
 20
211.701210
 11
344.947434
 21
211.701210
  0
ARC
  8
C
  6
DOT
 62
     2
 10
344.729061
 20
191.701239
 40
0.850000
 50
89.997987
 51
270.002013
  0
LINE
  8
C
  6
DOT
 62
     2
 10
344.041707
 20
191.201272
 11
343.529091
 21
191.201272
  0
ARC
  8
C
  6
DOT
 62
     2
 10
343.529061
 20
191.701239
 40
0.500000
 50
179.996076
 51
270.003422
  0
ARC
  8
C
  6
DOT
 62
     2
 10
343.529061
 20
191.701239
 40
0.500000
 50
89.996579
 51
179.996076
  0
LINE
  8
C
  6
DOT
 62
     2
 10
343.529091
 20
192.201271
 11
344.041707
 21
192.201271
  0
LINE
  8
C
  6
BORDER
 62
     3
 10
342.846711
 20
191.701273
 11
344.947434
 21
191.701273
  0
LINE
  8
C
  6
DOT
 62
     2
 10
347.329092
 20
219.701213
 11
352.929090
 21
219.701213
  0
LINE
  8
C
  6
DOT
 62
     2
 10
352.929090
 20
219.701213
 11
353.479089
 21
219.701213
  0
LINE
  8
C
  6
DOT
 62
     2
 10
353.479089
 20
219.701213
 11
353.479089
 21
223.701212
  0
LINE
  8
C
  6
DOT
 62
     2
 10
353.479089
 20
223.701212
 11
352.679091
 21
223.701212
  0
LINE
  8
C
  6
DOT
 62
     2
 10
352.679091
 20
223.701212
 11
347.329092
 21
223.701212
  0
LINE
  8
C
  6
DOT
 62
     2
 10
347.329092
 20
223.701212
 11
347.329092
 21
219.701213
  0
LINE
  8
C
  6
DOT
 62
     2
 10
348.929091
 20
225.301211
 11
350.779092
 21
225.301211
  0
LINE
  8
C
  6
DOT
 62
     2
 10
350.779092
 20
225.301211
 11
351.345756
 21
225.301211
  0
LINE
  8
C
  6
DOT
 62
     2
 10
351.345756
 20
225.301211
 11
352.129089
 21
225.301211
  0
LINE
  8
C
  6
DOT
 62
     2
 10
352.029090
 20
226.201211
 11
352.029090
 21
228.401210
  0
LINE
  8
C
  6
DOT
 62
     2
 10
349.029093
 20
228.401210
 11
349.029093
 21
226.401212
  0
LINE
  8
C
  6
DOT
 62
     2
 10
349.029093
 20
226.401212
 11
349.029093
 21
226.201211
  0
LINE
  8
C
  6
DOT
 62
     2
 10
348.929091
 20
226.201211
 11
350.529093
 21
226.201211
  0
LINE
  8
C
  6
DOT
 62
     2
 10
350.529093
 20
226.201211
 11
350.595759
 21
226.201211
  0
LINE
  8
C
  6
DOT
 62
     2
 10
350.595759
 20
226.201211
 11
352.129089
 21
226.201211
  0
LINE
  8
C
  6
DOT
 62
     2
 10
352.129089
 20
225.301211
 11
352.129089
 21
225.501212
  0
LINE
  8
C
  6
CONTINUOUS
 62
     7
 10
352.129089
 20
225.501212
 11
352.129089
 21
225.802958
  0
LINE
  8
C
  6
DOT
 62
     2
 10
352.129089
 20
225.802958
 11
352.129089
 21
226.201211
  0
LINE
  8
C
  6
DOT
 62
     2
 10
348.929091
 20
226.201211
 11
348.929091
 21
225.802958
  0
LINE
  8
C
  6
CONTINUOUS
 62
     7
 10
348.929091
 20
225.802958
 11
348.929091
 21
225.501212
  0
LINE
  8
C
  6
DOT
 62
     2
 10
348.929091
 20
225.501212
 11
348.929091
 21
225.301211
  0
ARC
  8
C
  6
DOT
 62
     2
 10
350.529061
 20
228.401239
 40
1.500000
 50
359.998902
 51
180.001098
  0
LINE
  8
C
  6
DOT
 62
     2
 10
346.329093
 20
220.651209
 11
349.779093
 21
220.651211
  0
ARC
  8
C
  6
DOT
 62
     2
 10
349.779061
 20
221.151239
 40
0.500000
 50
270.003651
 51
359.996934
  0
LINE
  8
C
  6
DOT
 62
     2
 10
350.279091
 20
221.151212
 11
350.279091
 21
225.301211
  0
LINE
  8
C
  6
DOT
 62
     2
 10
346.329093
 20
220.151211
 11
349.779093
 21
220.151213
  0
ARC
  8
C
  6
DOT
 62
     2
 10
349.779061
 20
221.151239
 40
1.000000
 50
270.001825
 51
359.998467
  0
LINE
  8
C
  6
DOT
 62
     2
 10
350.779092
 20
221.151212
 11
350.779092
 21
225.301211
  0
ARC
  8
C
  6
DOT
 62
     2
 10
344.729061
 20
194.201239
 40
0.850000
 50
89.997987
 51
270.002013
  0
LINE
  8
C
  6
DOT
 62
     2
 10
344.041707
 20
193.701271
 11
343.529091
 21
193.701271
  0
ARC
  8
C
  6
DOT
 62
     2
 10
343.529061
 20
194.201239
 40
0.500000
 50
179.996190
 51
270.003422
  0
ARC
  8
C
  6
DOT
 62
     2
 10
343.529061
 20
194.201239
 40
0.500000
 50
89.996579
 51
179.996190
  0
LINE
  8
C
  6
DOT
 62
     2
 10
343.529091
 20
194.701273
 11
344.041707
 21
194.701273
  0
LINE
  8
C
  6
BORDER
 62
     3
 10
342.846711
 20
194.201272
 11
344.947434
 21
194.201272
  0
ARC
  8
C
  6
DOT
 62
     2
 10
352.429061
 20
188.501239
 40
0.850000
 50
270.001878
 51
89.998122
  0
LINE
  8
C
  6
DOT
 62
     2
 10
353.116476
 20
188.001271
 11
353.629089
 21
188.001271
  0
ARC
  8
C
  6
DOT
 62
     2
 10
353.629061
 20
188.501239
 40
0.500000
 50
270.003193
 51
0.003809
  0
ARC
  8
C
  6
DOT
 62
     2
 10
353.629061
 20
188.501239
 40
0.500000
 50
0.003809
 51
89.996808
  0
LINE
  8
C
  6
DOT
 62
     2
 10
353.629089
 20
189.001273
 11
353.116476
 21
189.001273
  0
LINE
  8
C
  6
BORDER
 62
     3
 10
354.311469
 20
188.501272
 11
352.210749
 21
188.501272
  0
LINE
  8
C
  6
DOT
 62
     2
 10
351.029091
 20
209.301210
 11
350.163066
 21
208.801212
  0
LINE
  8
C
  6
DOT
 62
     2
 10
350.163066
 20
208.801212
 11
347.829093
 21
208.801212
  0
LINE
  8
C
  6
DOT
 62
     2
 10
347.829093
 20
208.801212
 11
347.829093
 21
213.801210
  0
LINE
  8
C
  6
DOT
 62
     2
 10
347.829093
 20
213.801210
 11
350.163066
 21
213.801210
  0
LINE
  8
C
  6
DOT
 62
     2
 10
350.163066
 20
213.801210
 11
351.029091
 21
213.301211
  0
LINE
  8
C
  6
DOT
 62
     2
 10
351.029091
 20
213.301211
 11
351.029091
 21
209.301210
  0
LINE
  8
C
  6
DOT
 62
     2
 10
348.529092
 20
223.701212
 11
348.529092
 21
224.501210
  0
ARC
  8
C
  6
DOT
 62
     2
 10
348.829061
 20
224.501239
 40
0.300000
 50
89.994106
 51
180.005493
  0
LINE
  8
C
  6
DOT
 62
     2
 10
348.829092
 20
224.801210
 11
351.729090
 21
224.801210
  0
LINE
  8
C
  6
DOT
 62
     2
 10
352.029090
 20
224.501210
 11
352.029090
 21
223.701212
  0
ARC
  8
C
  6
DOT
 62
     2
 10
351.729061
 20
224.501239
 40
0.300000
 50
359.994509
 51
89.994488
  0
LINE
  8
C
  6
CONTINUOUS
 62
     7
 10
346.029093
 20
225.802958
 11
357.728994
 21
225.802958
  0
ARC
  8
C
  6
CONTINUOUS
 62
     7
 10
357.729026
 20
225.302986
 40
0.500000
 50
23.358480
 51
90.003651
  0
ARC
  8
C
  6
DOT
 62
     2
 10
357.729026
 20
225.302986
 40
0.500000
 50
359.996707
 51
23.358480
  0
LINE
  8
C
  6
CONTINUOUS
 62
     7
 10
354.379077
 20
225.802958
 11
354.379077
 21
230.302925
  0
LINE
  8
C
  6
CONTINUOUS
 62
     7
 10
346.029093
 20
225.802958
 11
346.029093
 21
226.902851
  0
ARC
  8
C
  6
CONTINUOUS
 62
     7
 10
345.529061
 20
226.902879
 40
0.500000
 50
359.996826
 51
89.996452
  0
LINE
  8
C
  6
CONTINUOUS
 62
     7
 10
346.679082
 20
225.802958
 11
346.679076
 21
230.303039
  0
ARC
  8
C
  6
CONTINUOUS
 62
     7
 10
346.979047
 20
230.303066
 40
0.300000
 50
89.994405
 51
180.005240
  0
LINE
  8
C
  6
CONTINUOUS
 62
     7
 10
346.979076
 20
230.603039
 11
354.079080
 21
230.603027
  0
ARC
  8
C
  6
CONTINUOUS
 62
     7
 10
354.079048
 20
230.303054
 40
0.300000
 50
359.994758
 51
89.993801
  0
LINE
  8
C
  6
CONTINUOUS
 62
     7
 10
346.679079
 20
228.801194
 11
343.429092
 21
228.801197
  0
LINE
  8
C
  6
CONTINUOUS
 62
     7
 10
345.529092
 20
227.402852
 11
344.429091
 21
227.402852
  0
LINE
  8
C
  6
DOT
 62
     2
 10
343.629093
 20
223.501196
 11
340.829058
 21
223.501196
  0
ARC
  8
C
  6
DOT
 62
     2
 10
343.629061
 20
223.801221
 40
0.300000
 50
270.006042
 51
359.995266
  0
LINE
  8
C
  6
DOT
 62
     2
 10
340.829055
 20
223.501196
 11
340.229079
 21
223.501196
  0
LINE
  8
C
  6
DOT
 62
     2
 10
343.929093
 20
223.801196
 11
343.929090
 21
224.529413
  0
LINE
  8
C
  6
DOT
 62
     2
 10
343.929090
 20
224.529413
 11
343.929090
 21
225.501212
  0
LINE
  8
C
  6
CONTINUOUS
 62
     7
 10
343.929090
 20
225.501212
 11
343.929093
 21
226.902851
  0
ARC
  8
C
  6
CONTINUOUS
 62
     7
 10
344.429061
 20
226.902878
 40
0.500000
 50
89.996567
 51
180.003123
  0
LINE
  8
C
  6
CONTINUOUS
 62
     7
 10
357.529032
 20
228.801197
 11
357.129030
 21
228.801197
  0
ARC
  8
C
  6
CONTINUOUS
 62
     7
 10
357.129062
 20
228.601224
 40
0.200000
 50
90.009181
 51
180.008003
  0
LINE
  8
C
  6
CONTINUOUS
 62
     7
 10
354.929031
 20
228.801197
 11
354.379077
 21
228.801197
  0
ARC
  8
C
  6
CONTINUOUS
 62
     7
 10
354.929062
 20
228.601224
 40
0.200000
 50
359.991994
 51
90.008751
  0
LINE
  8
C
  6
CONTINUOUS
 62
     7
 10
342.429090
 20
227.801198
 11
342.429093
 21
225.501194
  0
ARC
  8
C
  6
CONTINUOUS
 62
     7
 10
343.429061
 20
227.801224
 40
1.000000
 50
89.998226
 51
180.001517
  0
LINE
  8
C
  6
DOT
 62
     2
 10
341.929092
 20
225.001193
 11
340.729077
 21
225.001193
  0
ARC
  8
C
  6
DOT
 62
     2
 10
341.929061
 20
225.501221
 40
0.500000
 50
270.003547
 51
323.163067
  0
ARC
  8
C
  6
DOT
 62
     2
 10
341.929061
 20
225.501221
 40
0.500000
 50
323.163067
 51
359.996866
  0
LINE
  8
C
  6
DOT
 62
     2
 10
340.229079
 20
223.501196
 11
340.229079
 21
224.501195
  0
ARC
  8
C
  6
DOT
 62
     2
 10
340.729047
 20
224.501220
 40
0.500000
 50
89.996567
 51
180.002871
  0
LINE
  8
C
  6
DOT
 62
     3
 10
348.529077
 20
226.302959
 11
348.529077
 21
230.103038
  0
ARC
  8
C
  6
DOT
 62
     3
 10
348.029047
 20
230.103065
 40
0.500000
 50
359.996945
 51
89.996338
  0
ARC
  8
C
  6
DOT
 62
     3
 10
348.029047
 20
226.302987
 40
0.500000
 50
270.003662
 51
359.996818
  0
LINE
  8
C
  6
DOT
 62
     3
 10
352.529079
 20
226.302959
 11
352.529079
 21
230.103029
  0
ARC
  8
C
  6
DOT
 62
     3
 10
353.029047
 20
230.103056
 40
0.500000
 50
89.996223
 51
180.003119
  0
ARC
  8
C
  6
DOT
 62
     3
 10
353.029047
 20
226.302986
 40
0.500000
 50
180.003135
 51
270.003433
  0
LINE
  8
C
  6
BORDER
 62
     3
 10
341.929056
 20
217.704804
 11
341.929056
 21
226.001192
  0
LINE
  8
C
  6
DOT
 62
     2
 10
341.229057
 20
218.501205
 11
340.729056
 21
219.001206
  0
LINE
  8
C
  6
DOT
 62
     2
 10
341.229057
 20
218.501205
 11
342.629058
 21
218.501205
  0
LINE
  8
C
  6
DOT
 62
     2
 10
343.129056
 20
219.001203
 11
342.629058
 21
218.501205
  0
LINE
  8
C
  6
DOT
 62
     2
 10
340.729056
 20
223.501196
 11
340.729056
 21
219.001206
  0
LINE
  8
C
  6
DOT
 62
     2
 10
343.129059
 20
219.001206
 11
343.129056
 21
223.501196
  0
LINE
  8
C
  6
CONTINUOUS
 62
     7
 10
370.528995
 20
223.501205
 11
370.528995
 21
225.201203
  0
LINE
  8
C
  6
CONTINUOUS
 62
     7
 10
370.028994
 20
225.701204
 11
359.728995
 21
225.701204
  0
ARC
  8
C
  6
CONTINUOUS
 62
     7
 10
370.029025
 20
225.201232
 40
0.500000
 50
359.996727
 51
90.003557
  0
ARC
  8
C
  6
CONTINUOUS
 62
     7
 10
359.729025
 20
225.201232
 40
0.500000
 50
90.003443
 51
143.133686
  0
ARC
  8
C
  6
DOT
 62
     2
 10
359.729025
 20
225.201232
 40
0.500000
 50
143.133686
 51
180.003273
  0
LINE
  8
C
  6
DOT
 62
     2
 10
359.228994
 20
225.201203
 11
359.228994
 21
223.501205
  0
LINE
  8
C
  6
DOT
 62
     2
 10
359.228994
 20
223.501205
 11
359.729199
 21
223.501205
  0
LINE
  8
C
  6
DOT
 62
     2
 10
359.729199
 20
223.501205
 11
360.228993
 21
223.501205
  0
LINE
  8
C
  6
DOT
 62
     2
 10
360.228993
 20
223.501205
 11
361.229199
 21
223.501193
  0
LINE
  8
C
  6
CONTINUOUS
 62
     7
 10
361.229199
 20
223.501193
 11
361.879017
 21
223.501205
  0
ARC
  8
C
  6
CONTINUOUS
 62
     7
 10
361.879048
 20
223.701231
 40
0.200000
 50
269.991160
 51
359.992721
  0
LINE
  8
C
  6
CONTINUOUS
 62
     7
 10
367.779018
 20
223.501205
 11
370.528995
 21
223.501205
  0
ARC
  8
C
  6
CONTINUOUS
 62
     7
 10
367.779048
 20
223.701231
 40
0.200000
 50
180.007278
 51
269.991447
  0
LINE
  8
C
  6
CONTINUOUS
 62
     7
 10
367.579017
 20
223.701206
 11
367.579014
 21
223.501190
  0
LINE
  8
C
  6
DOT
 62
     2
 10
367.579014
 20
223.501190
 11
367.579014
 21
223.201190
  0
LINE
  8
C
  6
DOT
 62
     2
 10
367.579014
 20
223.201190
 11
367.578996
 21
219.001208
  0
LINE
  8
C
  6
DOT
 62
     2
 10
368.078994
 20
218.501207
 11
368.978994
 21
218.501207
  0
LINE
  8
C
  6
DOT
 62
     2
 10
368.078994
 20
218.501207
 11
367.578996
 21
219.001208
  0
LINE
  8
C
  6
DOT
 62
     2
 10
369.478995
 20
219.001208
 11
369.478995
 21
223.501199
  0
LINE
  8
C
  6
CONTINUOUS
 62
     7
 10
369.478995
 20
223.501205
 11
369.478995
 21
223.507556
  0
LINE
  8
C
  6
DOT
 62
     2
 10
369.478995
 20
219.001208
 11
368.978994
 21
218.501207
  0
LINE
  8
C
  6
BORDER
 62
     3
 10
364.829016
 20
222.652511
 11
364.829016
 21
226.701203
  0
LINE
  8
C
  6
BORDER
 62
     3
 10
368.528994
 20
217.704806
 11
368.528994
 21
224.924585
  0
LINE
  8
C
  6
DOT
 62
     2
 10
369.478995
 20
219.001208
 11
367.578996
 21
219.001208
  0
LINE
  8
C
  6
CONTINUOUS
 62
     7
 10
362.079018
 20
223.701206
 11
362.079018
 21
224.001206
  0
LINE
  8
C
  6
CONTINUOUS
 62
     7
 10
362.279016
 20
224.201207
 11
367.379016
 21
224.201207
  0
ARC
  8
C
  6
CONTINUOUS
 62
     7
 10
362.279048
 20
224.001231
 40
0.200000
 50
90.009129
 51
180.007144
  0
LINE
  8
C
  6
CONTINUOUS
 62
     7
 10
367.579017
 20
224.001206
 11
367.579017
 21
223.701206
  0
ARC
  8
C
  6
CONTINUOUS
 62
     7
 10
367.379048
 20
224.001231
 40
0.200000
 50
359.992854
 51
90.009129
  0
LINE
  8
C
  6
CONTINUOUS
 62
     7
 10
370.028994
 20
224.546207
 11
361.174527
 21
224.546207
  0
LINE
  8
C
  6
DOT
 62
     2
 10
361.174527
 20
224.546207
 11
359.729199
 21
224.546207
  0
LINE
  8
C
  6
CONTINUOUS
 62
     7
 10
359.729199
 20
224.546207
 11
359.728995
 21
224.546207
  0
ARC
  8
C
  6
CONTINUOUS
 62
     7
 10
370.029025
 20
224.046232
 40
0.500000
 50
359.997071
 51
90.003557
  0
ARC
  8
C
  6
DOT
 62
     2
 10
359.729025
 20
224.046232
 40
0.500000
 50
90.003443
 51
180.002929
  0
LINE
  8
C
  6
CONTINUOUS
 62
     3
 10
359.728995
 20
225.501212
 11
359.728995
 21
225.701204
  0
LINE
  8
C
  6
CONTINUOUS
 62
     3
 10
370.028994
 20
224.546207
 11
370.028994
 21
225.701204
  0
LINE
  8
C
  6
DOT
 62
     3
 10
360.428994
 20
223.701206
 11
360.428994
 21
224.301206
  0
ARC
  8
C
  6
DOT
 62
     3
 10
360.229025
 20
223.701231
 40
0.200000
 50
269.990822
 51
359.992710
  0
ARC
  8
C
  6
DOT
 62
     3
 10
360.629025
 20
224.301231
 40
0.200000
 50
90.008608
 51
180.007287
  0
LINE
  8
C
  6
DOT
 62
     3
 10
369.328995
 20
223.701206
 11
369.328995
 21
224.301206
  0
ARC
  8
C
  6
DOT
 62
     3
 10
369.529025
 20
223.701231
 40
0.200000
 50
180.007287
 51
269.990822
  0
ARC
  8
C
  6
DOT
 62
     3
 10
369.129025
 20
224.301231
 40
0.200000
 50
359.992710
 51
90.008894
  0
LINE
  8
C
  6
DOT
 62
     3
 10
369.128994
 20
224.501207
 11
359.228994
 21
224.501207
  0
LINE
  8
C
  6
CONTINUOUS
 62
     7
 10
357.529032
 20
228.801197
 11
359.978994
 21
227.386709
  0
LINE
  8
C
  6
CONTINUOUS
 62
     7
 10
360.228996
 20
226.953695
 11
360.228996
 21
225.701204
  0
ARC
  8
C
  6
CONTINUOUS
 62
     7
 10
359.729026
 20
226.953724
 40
0.500000
 50
359.996727
 51
60.001600
  0
LINE
  8
C
  6
DOT
 62
     2
 10
358.228995
 20
225.302957
 11
358.228995
 21
225.001202
  0
ARC
  8
C
  6
DOT
 62
     2
 10
358.729026
 20
225.001231
 40
0.500000
 50
180.003288
 51
269.996578
  0
LINE
  8
C
  6
DOT
 62
     2
 10
358.728996
 20
224.501207
 11
359.228994
 21
224.501207
  0
LINE
  8
C
  6
CONTINUOUS
 62
     7
 10
356.929032
 20
227.901191
 11
356.929032
 21
228.601196
  0
LINE
  8
C
  6
CONTINUOUS
 62
     7
 10
355.129032
 20
227.901191
 11
355.129032
 21
228.601196
  0
ARC
  8
C
  6
CONTINUOUS
 62
     7
 10
356.029062
 20
227.901218
 40
0.900000
 50
180.001715
 51
359.998285
  0
LINE
  8
C
  6
BORDER
 62
     3
 10
354.929031
 20
227.901191
 11
357.129030
 21
227.901191
  0
LINE
  8
C
  6
BORDER
 62
     3
 10
356.029032
 20
226.890968
 11
356.029032
 21
228.924665
  0
LINE
  8
C
  6
DOT
 62
     2
 10
340.729056
 20
219.001206
 11
343.129059
 21
219.001206
  0
LINE
  8
C
  6
DOT
 62
     3
 10
347.129070
 20
230.602937
 11
348.929076
 21
228.802934
  0
LINE
  8
C
  6
DOT
 62
     3
 10
348.929076
 20
228.802934
 11
352.129077
 21
228.802934
  0
LINE
  8
C
  6
DOT
 62
     3
 10
348.929076
 20
228.802934
 11
348.929076
 21
226.502933
  0
LINE
  8
C
  6
DOT
 62
     3
 10
348.779091
 20
226.502933
 11
352.279092
 21
226.502933
  0
LINE
  8
C
  6
DOT
 62
     3
 10
348.779091
 20
225.802958
 11
348.779091
 21
226.502933
  0
LINE
  8
C
  6
DOT
 62
     3
 10
352.129077
 20
228.802934
 11
352.129077
 21
226.502933
  0
LINE
  8
C
  6
DOT
 62
     3
 10
352.279092
 20
226.502933
 11
352.279092
 21
225.802958
  0
LINE
  8
C
  6
DOT
 62
     3
 10
353.929068
 20
230.602925
 11
352.129077
 21
228.802934
  0
LINE
  8
C
  6
CONTINUOUS
 62
     7
 10
361.329135
 20
225.701204
 11
361.329135
 21
227.087660
  0
ARC
  8
C
  6
CONTINUOUS
 62
     7
 10
360.829165
 20
227.087688
 40
0.500000
 50
359.996741
 51
60.001657
  0
LINE
  8
C
  6
CONTINUOUS
 62
     7
 10
358.207593
 20
229.101209
 11
354.379077
 21
229.101209
  0
LINE
  8
C
  6
CONTINUOUS
 62
     7
 10
346.679079
 20
229.101209
 11
342.850731
 21
229.101209
  0
ARC
  8
C
  6
CONTINUOUS
 62
     7
 10
342.850700
 20
228.601236
 40
0.500000
 50
89.996467
 51
119.998350
  0
LINE
  8
C
  6
CONTINUOUS
 62
     7
 10
339.729195
 20
227.087663
 11
339.729198
 21
221.601210
  0
LINE
  8
C
  6
CONTINUOUS
 62
     7
 10
342.600732
 20
229.034222
 11
339.979197
 21
227.520677
  0
ARC
  8
C
  6
CONTINUOUS
 62
     7
 10
340.229165
 20
227.087692
 40
0.500000
 50
119.998424
 51
180.003276
  0
LINE
  8
C
  6
CONTINUOUS
 62
     7
 10
361.079133
 20
227.520674
 11
358.457592
 21
229.034222
  0
ARC
  8
C
  6
CONTINUOUS
 62
     7
 10
358.207624
 20
228.601236
 40
0.500000
 50
60.001713
 51
90.003606
  0
LINE
  8
C
  6
CONTINUOUS
 62
     7
 10
347.029266
 20
221.601212
 11
338.529267
 21
221.601210
  0
LINE
  8
C
  6
BORDER
 62
     3
 10
350.529264
 20
230.801207
 11
350.529264
 21
221.101211
  0
LINE
  8
C
  6
CONTINUOUS
 62
     7
 10
354.529218
 20
230.301206
 11
354.529218
 21
229.601207
  0
ARC
  8
C
  6
CONTINUOUS
 62
     7
 10
355.029234
 20
229.601236
 40
0.500000
 50
180.003281
 51
269.996530
  0
LINE
  8
C
  6
CONTINUOUS
 62
     7
 10
346.529265
 20
230.301209
 11
346.529265
 21
229.601207
  0
ARC
  8
C
  6
CONTINUOUS
 62
     7
 10
346.029235
 20
229.601236
 40
0.500000
 50
270.003357
 51
359.996719
  0
LINE
  8
C
  6
CONTINUOUS
 62
     7
 10
361.329135
 20
226.001207
 11
362.529204
 21
226.001207
  0
LINE
  8
C
  6
CONTINUOUS
 62
     7
 10
362.529204
 20
225.701204
 11
362.529204
 21
226.798943
  0
ARC
  8
C
  6
CONTINUOUS
 62
     7
 10
360.329234
 20
226.798971
 40
2.200000
 50
359.999263
 51
60.000326
  0
LINE
  8
C
  6
CONTINUOUS
 62
     7
 10
361.429203
 20
228.704198
 11
359.173617
 21
230.006462
  0
LINE
  8
C
  6
CONTINUOUS
 62
     7
 10
358.073619
 20
230.301206
 11
354.379077
 21
230.301209
  0
LINE
  8
C
  6
CONTINUOUS
 62
     7
 10
346.679076
 20
230.301209
 11
342.984711
 21
230.301209
  0
ARC
  8
C
  6
CONTINUOUS
 62
     7
 10
358.073649
 20
228.101235
 40
2.200000
 50
60.000340
 51
90.000770
  0
ARC
  8
C
  6
CONTINUOUS
 62
     7
 10
342.984679
 20
228.101237
 40
2.200000
 50
89.999160
 51
119.999720
  0
LINE
  8
C
  6
CONTINUOUS
 62
     7
 10
341.884710
 20
230.006465
 11
339.629265
 21
228.704282
  0
ARC
  8
C
  6
CONTINUOUS
 62
     7
 10
340.729235
 20
226.799055
 40
2.200000
 50
119.999710
 51
180.000789
  0
LINE
  8
C
  6
CONTINUOUS
 62
     7
 10
338.529267
 20
226.799025
 11
338.529267
 21
221.601210
  0
LINE
  8
HATCH
  6
CONTINUOUS
 62
     3
 10
338.529270
 20
221.902460
 11
338.830523
 21
221.601207
  0
LINE
  8
HATCH
  6
CONTINUOUS
 62
     3
 10
338.529270
 20
222.609564
 11
339.537627
 21
221.601207
  0
LINE
  8
HATCH
  6
CONTINUOUS
 62
     3
 10
338.529270
 20
223.316668
 11
339.729201
 21
222.116738
  0
LINE
  8
HATCH
  6
CONTINUOUS
 62
     3
 10
338.529270
 20
224.023772
 11
339.729200
 21
222.823842
  0
LINE
  8
HATCH
  6
CONTINUOUS
 62
     3
 10
338.529270
 20
224.730876
 11
339.729200
 21
223.530946
  0
LINE
  8
HATCH
  6
CONTINUOUS
 62
     3
 10
338.529270
 20
225.437980
 11
339.729199
 21
224.238051
  0
LINE
  8
HATCH
  6
CONTINUOUS
 62
     3
 10
338.529270
 20
226.145084
 11
339.729199
 21
224.945155
  0
LINE
  8
HATCH
  6
CONTINUOUS
 62
     3
 10
338.529897
 20
226.851561
 11
339.729199
 21
225.652260
  0
LINE
  8
HATCH
  6
CONTINUOUS
 62
     3
 10
338.630343
 20
227.458220
 11
339.729199
 21
226.359364
  0
LINE
  8
HATCH
  6
CONTINUOUS
 62
     3
 10
338.851057
 20
227.944609
 11
339.729198
 21
227.066468
  0
LINE
  8
HATCH
  6
CONTINUOUS
 62
     3
 10
339.160917
 20
228.341853
 11
339.981036
 21
227.521734
  0
LINE
  8
HATCH
  6
CONTINUOUS
 62
     3
 10
339.552205
 20
228.657669
 11
340.429322
 21
227.780552
  0
LINE
  8
HATCH
  6
CONTINUOUS
 62
     3
 10
339.999148
 20
228.917830
 11
340.877607
 21
228.039371
  0
LINE
  8
HATCH
  6
CONTINUOUS
 62
     3
 10
340.447434
 20
229.176648
 11
341.325893
 21
228.298189
  0
LINE
  8
HATCH
  6
CONTINUOUS
 62
     3
 10
340.895720
 20
229.435466
 11
341.774179
 21
228.557007
  0
LINE
  8
HATCH
  6
CONTINUOUS
 62
     3
 10
341.344005
 20
229.694285
 11
342.222465
 21
228.815825
  0
LINE
  8
HATCH
  6
CONTINUOUS
 62
     3
 10
341.792291
 20
229.953103
 11
342.675784
 21
229.069610
  0
LINE
  8
HATCH
  6
CONTINUOUS
 62
     3
 10
342.270465
 20
230.182033
 11
343.351292
 21
229.101206
  0
LINE
  8
HATCH
  6
CONTINUOUS
 62
     3
 10
342.861839
 20
230.297762
 11
344.058396
 21
229.101206
  0
LINE
  8
HATCH
  6
CONTINUOUS
 62
     3
 10
343.565499
 20
230.301207
 11
344.765500
 21
229.101206
  0
LINE
  8
HATCH
  6
CONTINUOUS
 62
     3
 10
344.272603
 20
230.301207
 11
345.472604
 21
229.101206
  0
LINE
  8
HATCH
  6
CONTINUOUS
 62
     3
 10
344.979707
 20
230.301207
 11
346.161815
 21
229.119099
  0
LINE
  8
HATCH
  6
CONTINUOUS
 62
     3
 10
345.686811
 20
230.301207
 11
346.513060
 21
229.474957
  0
LINE
  8
HATCH
  6
CONTINUOUS
 62
     3
 10
346.393915
 20
230.301206
 11
346.529268
 21
230.165854
  0
LINE
  8
HATCH
  6
CONTINUOUS
 62
     3
 10
354.529218
 20
229.944047
 11
355.372059
 21
229.101206
  0
LINE
  8
HATCH
  6
CONTINUOUS
 62
     3
 10
354.879165
 20
230.301203
 11
356.079163
 21
229.101206
  0
LINE
  8
HATCH
  6
CONTINUOUS
 62
     3
 10
355.586269
 20
230.301203
 11
356.786266
 21
229.101206
  0
LINE
  8
HATCH
  6
CONTINUOUS
 62
     3
 10
356.293373
 20
230.301203
 11
357.493370
 21
229.101206
  0
LINE
  8
HATCH
  6
CONTINUOUS
 62
     3
 10
357.000477
 20
230.301203
 11
358.200474
 21
229.101206
  0
LINE
  8
HATCH
  6
CONTINUOUS
 62
     3
 10
357.707581
 20
230.301203
 11
359.680765
 21
228.328020
  0
LINE
  8
HATCH
  6
CONTINUOUS
 62
     3
 10
361.329135
 20
226.679649
 11
362.007580
 21
226.001204
  0
LINE
  8
HATCH
  6
CONTINUOUS
 62
     3
 10
358.446513
 20
230.269376
 11
362.529204
 21
226.186684
  0
LINE
  8
HATCH
  6
CONTINUOUS
 62
     3
 10
359.748364
 20
229.674628
 11
362.527053
 21
226.895939
  0
LINE
  8
HATCH
  6
CONTINUOUS
 62
     3
 10
361.421391
 20
228.708706
 11
362.238919
 21
227.891177
  0
ENDBLK
  8
0
  0
BLOCK
  8
DIMENSION
  2
*D2
 70
    65
 10
0.000000
 20
0.000000
 30
0.000000
  3
*D
  0
LINE
  8
DIMENSION
  6
BYBLOCK
 62
     3
 10
92.291559
 20
209.011171
 11
92.291559
 21
229.301165
  0
LINE
  8
DIMENSION
  6
BYBLOCK
 62
     3
 10
92.291559
 20
228.501165
 11
102.291561
 21
228.501165
  0
LINE
  8
DIMENSION
  6
BYBLOCK
 62
     3
 10
95.991559
 20
228.051165
 11
92.291559
 21
228.501165
  0
LINE
  8
DIMENSION
  6
BYBLOCK
 62
     3
 10
92.291559
 20
228.501165
 11
95.991559
 21
228.951165
  0
LINE
  8
DIMENSION
  6
BYBLOCK
 62
     3
 10
95.991559
 20
228.951165
 11
95.991559
 21
228.051165
  0
LINE
  8
DIMENSION
  6
BYBLOCK
 62
     3
 10
98.591561
 20
228.951165
 11
102.291561
 21
228.501165
  0
LINE
  8
DIMENSION
  6
BYBLOCK
 62
     3
 10
102.291561
 20
228.501165
 11
98.591561
 21
228.051165
  0
LINE
  8
DIMENSION
  6
BYBLOCK
 62
     3
 10
98.591561
 20
228.051165
 11
98.591561
 21
228.951165
  0
LINE
  8
DIMENSION
  6
BYBLOCK
 62
     3
 10
102.291561
 20
229.301165
 11
102.291561
 21
209.011171
  0
TEXT
  8
DIMENSION
 62
     4
 10
95.410952
 20
230.251168
 40
3.500000
  1
10
 50
0.000000
 41
1.068376
 51
0.000000
  7
STANDARD
 72
     5
 11
99.785952
 21
230.251168
 73
     0
  0
POINT
  8
DIMENSION
  6
BYBLOCK
 62
     9
 10
92.291557
 20
209.001174
  0
POINT
  8
DIMENSION
  6
BYBLOCK
 62
     9
 10
102.291559
 20
209.001174
  0
ENDBLK
  8
0
  0
BLOCK
  8
C
  2
MEDCLUMP_SET_220_
 70
    66
 10
0.000000
 20
0.000000
 30
0.000000
  0
ARC
  8
C
  6
CONTINUOUS
 62
     4
 10
43.791565
 20
216.001174
 40
1.499999
 50
89.999841
 51
180.000125
  0
LINE
  8
C
  6
CONTINUOUS
 62
     4
 10
43.791569
 20
217.501171
 11
80.791556
 21
217.501171
  0
ARC
  8
C
  6
CONTINUOUS
 62
     4
 10
80.791559
 20
216.001174
 40
1.499999
 50
359.999875
 51
90.000117
  0
LINE
  8
C
  6
CONTINUOUS
 62
     4
 10
82.291556
 20
216.001171
 11
82.291556
 21
210.501171
  0
LINE
  8
C
  6
CONTINUOUS
 62
     4
 10
82.291556
 20
210.501171
 11
90.791556
 21
210.501171
  0
ARC
  8
C
  6
CONTINUOUS
 62
     4
 10
90.791559
 20
209.001174
 40
1.499999
 50
359.999875
 51
90.000117
  0
LINE
  8
C
  6
CONTINUOUS
 62
     4
 10
92.291556
 20
209.001171
 11
92.291556
 21
207.501134
  0
LINE
  8
C
  6
CONTINUOUS
 62
     4
 10
92.291556
 20
203.001161
 11
92.291556
 21
203.001161
  0
LINE
  8
C
  6
CONTINUOUS
 62
     4
 10
90.791556
 20
207.501134
 11
90.791556
 21
209.001171
  0
LINE
  8
C
  6
CONTINUOUS
 62
     4
 10
90.791556
 20
209.001171
 11
82.291556
 21
209.001171
  0
ARC
  8
C
  6
CONTINUOUS
 62
     4
 10
82.291557
 20
210.501172
 40
1.499999
 50
180.000039
 51
269.999968
  0
LINE
  8
C
  6
CONTINUOUS
 62
     4
 10
80.791556
 20
210.501171
 11
80.791556
 21
216.001171
  0
LINE
  8
C
  6
CONTINUOUS
 62
     4
 10
80.791556
 20
216.001171
 11
43.791577
 21
216.001171
  0
LINE
  8
C
  6
CONTINUOUS
 62
     4
 10
43.791577
 20
216.001171
 11
43.791574
 21
207.501134
  0
LINE
  8
C
  6
CONTINUOUS
 62
     4
 10
43.791574
 20
207.501134
 11
43.791573
 21
203.120301
  0
LINE
  8
C
  6
CONTINUOUS
 62
     4
 10
43.791571
 20
198.120295
 11
43.791569
 21
196.682085
  0
LINE
  8
C
  6
CONTINUOUS
 62
     4
 10
43.791569
 20
196.682085
 11
43.791573
 21
203.120301
  0
LINE
  8
C
  6
CONTINUOUS
 62
     4
 10
49.291561
 20
202.751139
 11
49.291569
 21
194.501177
  0
LINE
  8
C
  6
CONTINUOUS
 62
     4
 10
49.291569
 20
194.501177
 11
47.791561
 21
194.501177
  0
LINE
  8
C
  6
CONTINUOUS
 62
     4
 10
47.791561
 20
194.501177
 11
47.791561
 21
202.751139
  0
LINE
  8
C
  6
CONTINUOUS
 62
     4
 10
45.291561
 20
202.751139
 11
45.291561
 21
195.901201
  0
ARC
  8
C
  6
CONTINUOUS
 62
     4
 10
43.891542
 20
195.901157
 40
1.400016
 50
270.001678
 51
0.001797
  0
LINE
  8
C
  6
CONTINUOUS
 62
     4
 10
43.891583
 20
194.501145
 11
43.791577
 21
194.501145
  0
ARC
  8
C
  6
CONTINUOUS
 62
     4
 10
43.791581
 20
196.001164
 40
1.500023
 50
179.999504
 51
269.999854
  0
LINE
  8
C
  6
CONTINUOUS
 62
     4
 10
42.291561
 20
196.001177
 11
42.291563
 21
198.120295
  0
LINE
  8
C
  6
CONTINUOUS
 62
     4
 10
42.291563
 20
198.120295
 11
42.291565
 21
203.120301
  0
LINE
  8
C
  6
CONTINUOUS
 62
     4
 10
42.291565
 20
203.120301
 11
42.291566
 21
207.501134
  0
LINE
  8
C
  6
CONTINUOUS
 62
     4
 10
42.291566
 20
207.501134
 11
42.291569
 21
216.001171
  0
ARC
  8
C
  6
CONTINUOUS
 62
     4
 10
46.541583
 20
202.751164
 40
2.749975
 50
359.999478
 51
180.000522
  0
ARC
  8
C
  6
CONTINUOUS
 62
     4
 10
46.541558
 20
202.751136
 40
1.250006
 50
0.000156
 51
179.999844
  0
LINE
  8
C
  6
CONTINUOUS
 62
     4
 10
90.791556
 20
207.501134
 11
90.791557
 21
203.120301
  0
LINE
  8
C
  6
CONTINUOUS
 62
     4
 10
90.791559
 20
198.120295
 11
90.791561
 21
196.682085
  0
LINE
  8
C
  6
CONTINUOUS
 62
     4
 10
90.791561
 20
196.682085
 11
90.791557
 21
203.120301
  0
LINE
  8
C
  6
CONTINUOUS
 62
     4
 10
85.291569
 20
202.751139
 11
85.291561
 21
194.501177
  0
LINE
  8
C
  6
CONTINUOUS
 62
     4
 10
85.291561
 20
194.501177
 11
86.791569
 21
194.501177
  0
LINE
  8
C
  6
CONTINUOUS
 62
     4
 10
86.791569
 20
194.501177
 11
86.791569
 21
202.751139
  0
LINE
  8
C
  6
CONTINUOUS
 62
     4
 10
89.291569
 20
202.751139
 11
89.291569
 21
195.901201
  0
ARC
  8
C
  6
CONTINUOUS
 62
     4
 10
90.691586
 20
195.901157
 40
1.400016
 50
179.998203
 51
269.998389
  0
LINE
  8
C
  6
CONTINUOUS
 62
     4
 10
90.691547
 20
194.501145
 11
90.791553
 21
194.501145
  0
ARC
  8
C
  6
CONTINUOUS
 62
     4
 10
90.791548
 20
196.001164
 40
1.500023
 50
270.000209
 51
0.000496
  0
LINE
  8
C
  6
CONTINUOUS
 62
     4
 10
92.291569
 20
196.001177
 11
92.291567
 21
198.120295
  0
LINE
  8
C
  6
CONTINUOUS
 62
     4
 10
92.291567
 20
198.120295
 11
92.291565
 21
203.120301
  0
LINE
  8
C
  6
CONTINUOUS
 62
     4
 10
92.291565
 20
203.120301
 11
92.291564
 21
207.501134
  0
ARC
  8
C
  6
CONTINUOUS
 62
     4
 10
88.041545
 20
202.751164
 40
2.749975
 50
359.999478
 51
180.000522
  0
ARC
  8
C
  6
CONTINUOUS
 62
     4
 10
88.041570
 20
202.751136
 40
1.250006
 50
0.000156
 51
179.999844
  0
ENDBLK
  8
0
  0
BLOCK
  8
DIMENSION
  2
*D3
 70
    65
 10
0.000000
 20
0.000000
 30
0.000000
  3
*D
  0
LINE
  8
DIMENSION
  6
BYBLOCK
 62
     3
 10
323.529212
 20
209.011172
 11
323.529212
 21
229.301166
  0
LINE
  8
DIMENSION
  6
BYBLOCK
 62
     3
 10
323.529212
 20
228.501166
 11
313.529210
 21
228.501166
  0
LINE
  8
DIMENSION
  6
BYBLOCK
 62
     3
 10
319.829212
 20
228.951166
 11
323.529212
 21
228.501166
  0
LINE
  8
DIMENSION
  6
BYBLOCK
 62
     3
 10
323.529212
 20
228.501166
 11
319.829212
 21
228.051166
  0
LINE
  8
DIMENSION
  6
BYBLOCK
 62
     3
 10
319.829212
 20
228.051166
 11
319.829212
 21
228.951166
  0
LINE
  8
DIMENSION
  6
BYBLOCK
 62
     3
 10
317.229210
 20
228.051166
 11
313.529210
 21
228.501166
  0
LINE
  8
DIMENSION
  6
BYBLOCK
 62
     3
 10
313.529210
 20
228.501166
 11
317.229210
 21
228.951166
  0
LINE
  8
DIMENSION
  6
BYBLOCK
 62
     3
 10
317.229210
 20
228.951166
 11
317.229210
 21
228.051166
  0
LINE
  8
DIMENSION
  6
BYBLOCK
 62
     3
 10
313.529210
 20
229.301166
 11
313.529210
 21
209.011172
  0
TEXT
  8
DIMENSION
 62
     4
 10
316.034819
 20
230.251168
 40
3.499999
  1
10
 50
0.000000
 41
1.068376
 51
0.000000
  7
STANDARD
 72
     5
 11
320.409817
 21
230.251168
 73
     0
  0
POINT
  8
DIMENSION
  6
BYBLOCK
 62
     9
 10
323.529213
 20
209.001174
  0
POINT
  8
DIMENSION
  6
BYBLOCK
 62
     9
 10
313.529211
 20
209.001174
  0
ENDBLK
  8
0
  0
BLOCK
  8
DIMENSION
  2
*D4
 70
    65
 10
0.000000
 20
0.000000
 30
0.000000
  3
*D
  0
LINE
  8
DIMENSION
  6
BYBLOCK
 62
     3
 10
323.529203
 20
167.491170
 11
323.529203
 21
117.701168
  0
LINE
  8
DIMENSION
  6
BYBLOCK
 62
     3
 10
315.329203
 20
118.501168
 11
323.529203
 21
118.501168
  0
LINE
  8
DIMENSION
  6
BYBLOCK
 62
     3
 10
319.829203
 20
118.951168
 11
323.529203
 21
118.501168
  0
LINE
  8
DIMENSION
  6
BYBLOCK
 62
     3
 10
323.529203
 20
118.501168
 11
319.829203
 21
118.051168
  0
LINE
  8
DIMENSION
  6
BYBLOCK
 62
     3
 10
319.829203
 20
118.051168
 11
319.829203
 21
118.951168
  0
LINE
  8
DIMENSION
  6
BYBLOCK
 62
     3
 10
323.529203
 20
118.501168
 11
325.029241
 21
118.501168
  0
LINE
  8
DIMENSION
  6
BYBLOCK
 62
     3
 10
325.029241
 20
118.501168
 11
340.505051
 21
118.501168
  0
LINE
  8
DIMENSION
  6
BYBLOCK
 62
     3
 10
328.729241
 20
118.051168
 11
325.029241
 21
118.501168
  0
LINE
  8
DIMENSION
  6
BYBLOCK
 62
     3
 10
325.029241
 20
118.501168
 11
328.729241
 21
118.951168
  0
LINE
  8
DIMENSION
  6
BYBLOCK
 62
     3
 10
328.729241
 20
118.951168
 11
328.729241
 21
118.051168
  0
LINE
  8
DIMENSION
  6
BYBLOCK
 62
     3
 10
325.029241
 20
117.701168
 11
325.029241
 21
165.991144
  0
TEXT
  8
DIMENSION
 62
     4
 10
333.142552
 20
120.251168
 40
3.500000
  1
1.5
 50
0.000000
 41
1.060736
 51
0.000000
  7
STANDARD
 72
     5
 11
339.342552
 21
120.251168
 73
     0
  0
POINT
  8
DIMENSION
  6
BYBLOCK
 62
     9
 10
323.529204
 20
167.501171
  0
POINT
  8
DIMENSION
  6
BYBLOCK
 62
     9
 10
325.029242
 20
166.001145
  0
ENDBLK
  8
0
  0
BLOCK
  8
DIMENSION
  2
*D5
 70
    65
 10
0.000000
 20
0.000000
 30
0.000000
  3
*D
  0
LINE
  8
DIMENSION
  6
BYBLOCK
 62
     3
 10
319.988254
 20
200.099228
 11
339.645672
 21
200.099228
  0
LINE
  8
DIMENSION
  6
BYBLOCK
 62
     3
 10
338.845672
 20
200.099228
 11
338.845672
 21
175.099255
  0
LINE
  8
DIMENSION
  6
BYBLOCK
 62
     3
 10
338.395672
 20
196.399228
 11
338.845672
 21
200.099228
  0
LINE
  8
DIMENSION
  6
BYBLOCK
 62
     3
 10
338.845672
 20
200.099228
 11
339.295672
 21
196.399228
  0
LINE
  8
DIMENSION
  6
BYBLOCK
 62
     3
 10
339.295672
 20
196.399228
 11
338.395672
 21
196.399228
  0
LINE
  8
DIMENSION
  6
BYBLOCK
 62
     3
 10
339.295672
 20
178.799255
 11
338.845672
 21
175.099255
  0
LINE
  8
DIMENSION
  6
BYBLOCK
 62
     3
 10
338.845672
 20
175.099255
 11
338.395672
 21
178.799255
  0
LINE
  8
DIMENSION
  6
BYBLOCK
 62
     3
 10
338.395672
 20
178.799255
 11
339.295672
 21
178.799255
  0
LINE
  8
DIMENSION
  6
BYBLOCK
 62
     3
 10
339.645672
 20
175.099255
 11
319.988254
 21
175.099255
  0
TEXT
  8
DIMENSION
 62
     4
 10
337.095673
 20
180.563668
 40
3.500000
  1
25
 50
90.000000
 41
0.662960
 51
0.000000
  7
STANDARD
 72
     5
 11
337.095673
 21
184.438668
 73
     0
  0
POINT
  8
DIMENSION
  6
BYBLOCK
 62
     9
 10
319.978255
 20
200.099231
  0
POINT
  8
DIMENSION
  6
BYBLOCK
 62
     9
 10
319.978255
 20
175.099256
  0
ENDBLK
  8
0
  0
BLOCK
  8
C
  2
MEDCLUMP_SET_220_-2
 70
    66
 10
0.000000
 20
0.000000
 30
0.000000
  0
ARC
  8
C
  6
CONTINUOUS
 62
     4
 10
372.029206
 20
216.001174
 40
1.499999
 50
359.999875
 51
90.000162
  0
LINE
  8
C
  6
CONTINUOUS
 62
     4
 10
372.029202
 20
217.501171
 11
335.029215
 21
217.501171
  0
ARC
  8
C
  6
CONTINUOUS
 62
     4
 10
335.029212
 20
216.001174
 40
1.499999
 50
89.999885
 51
180.000125
  0
LINE
  8
C
  6
CONTINUOUS
 62
     4
 10
333.529215
 20
216.001171
 11
333.529215
 21
210.501171
  0
LINE
  8
C
  6
CONTINUOUS
 62
     4
 10
333.529215
 20
210.501171
 11
325.029215
 21
210.501171
  0
ARC
  8
C
  6
CONTINUOUS
 62
     4
 10
325.029212
 20
209.001174
 40
1.499999
 50
89.999885
 51
180.000125
  0
LINE
  8
C
  6
CONTINUOUS
 62
     4
 10
323.529215
 20
209.001171
 11
323.529215
 21
207.501134
  0
LINE
  8
C
  6
CONTINUOUS
 62
     4
 10
323.529215
 20
203.001161
 11
323.529215
 21
203.001161
  0
LINE
  8
C
  6
CONTINUOUS
 62
     4
 10
325.029215
 20
207.501134
 11
325.029215
 21
209.001171
  0
LINE
  8
C
  6
CONTINUOUS
 62
     4
 10
325.029215
 20
209.001171
 11
333.529215
 21
209.001171
  0
ARC
  8
C
  6
CONTINUOUS
 62
     4
 10
333.529214
 20
210.501172
 40
1.499999
 50
270.000029
 51
359.999961
  0
LINE
  8
C
  6
CONTINUOUS
 62
     4
 10
335.029215
 20
210.501171
 11
335.029215
 21
216.001171
  0
LINE
  8
C
  6
CONTINUOUS
 62
     4
 10
335.029215
 20
216.001171
 11
372.029194
 21
216.001171
  0
LINE
  8
C
  6
CONTINUOUS
 62
     4
 10
372.029194
 20
216.001171
 11
372.029197
 21
207.501134
  0
LINE
  8
C
  6
CONTINUOUS
 62
     4
 10
372.029197
 20
207.501134
 11
372.029198
 21
203.120301
  0
LINE
  8
C
  6
CONTINUOUS
 62
     4
 10
372.029200
 20
198.120295
 11
372.029202
 21
196.682085
  0
LINE
  8
C
  6
CONTINUOUS
 62
     4
 10
372.029202
 20
196.682085
 11
372.029198
 21
203.120301
  0
LINE
  8
C
  6
CONTINUOUS
 62
     4
 10
366.529210
 20
202.751139
 11
366.529202
 21
194.501177
  0
LINE
  8
C
  6
CONTINUOUS
 62
     4
 10
366.529202
 20
194.501177
 11
368.029210
 21
194.501177
  0
LINE
  8
C
  6
CONTINUOUS
 62
     4
 10
368.029210
 20
194.501177
 11
368.029210
 21
202.751139
  0
LINE
  8
C
  6
CONTINUOUS
 62
     4
 10
370.529210
 20
202.751139
 11
370.529210
 21
195.901201
  0
ARC
  8
C
  6
CONTINUOUS
 62
     4
 10
371.929229
 20
195.901157
 40
1.400016
 50
179.998203
 51
269.998320
  0
LINE
  8
C
  6
CONTINUOUS
 62
     4
 10
371.929188
 20
194.501145
 11
372.029194
 21
194.501145
  0
ARC
  8
C
  6
CONTINUOUS
 62
     4
 10
372.029190
 20
196.001164
 40
1.500023
 50
270.000144
 51
0.000496
  0
LINE
  8
C
  6
CONTINUOUS
 62
     4
 10
373.529210
 20
196.001177
 11
373.529208
 21
198.120295
  0
LINE
  8
C
  6
CONTINUOUS
 62
     4
 10
373.529208
 20
198.120295
 11
373.529206
 21
203.120301
  0
LINE
  8
C
  6
CONTINUOUS
 62
     4
 10
373.529206
 20
203.120301
 11
373.529205
 21
207.501134
  0
LINE
  8
C
  6
CONTINUOUS
 62
     4
 10
373.529205
 20
207.501134
 11
373.529202
 21
216.001171
  0
ARC
  8
C
  6
CONTINUOUS
 62
     4
 10
369.279188
 20
202.751164
 40
2.749975
 50
359.999478
 51
180.000522
  0
ARC
  8
C
  6
CONTINUOUS
 62
     4
 10
369.279213
 20
202.751136
 40
1.250006
 50
0.000156
 51
179.999844
  0
LINE
  8
C
  6
CONTINUOUS
 62
     4
 10
325.029215
 20
207.501134
 11
325.029214
 21
203.120301
  0
LINE
  8
C
  6
CONTINUOUS
 62
     4
 10
325.029212
 20
198.120295
 11
325.029210
 21
196.682085
  0
LINE
  8
C
  6
CONTINUOUS
 62
     4
 10
325.029210
 20
196.682085
 11
325.029214
 21
203.120301
  0
LINE
  8
C
  6
CONTINUOUS
 62
     4
 10
330.529202
 20
202.751139
 11
330.529210
 21
194.501177
  0
LINE
  8
C
  6
CONTINUOUS
 62
     4
 10
330.529210
 20
194.501177
 11
329.029202
 21
194.501177
  0
LINE
  8
C
  6
CONTINUOUS
 62
     4
 10
329.029202
 20
194.501177
 11
329.029202
 21
202.751139
  0
LINE
  8
C
  6
CONTINUOUS
 62
     4
 10
326.529202
 20
202.751139
 11
326.529202
 21
195.901201
  0
ARC
  8
C
  6
CONTINUOUS
 62
     4
 10
325.129185
 20
195.901157
 40
1.400016
 50
270.001609
 51
0.001797
  0
LINE
  8
C
  6
CONTINUOUS
 62
     4
 10
325.129224
 20
194.501145
 11
325.029218
 21
194.501145
  0
ARC
  8
C
  6
CONTINUOUS
 62
     4
 10
325.029224
 20
196.001164
 40
1.500023
 50
179.999504
 51
269.999789
  0
LINE
  8
C
  6
CONTINUOUS
 62
     4
 10
323.529202
 20
196.001177
 11
323.529204
 21
198.120295
  0
LINE
  8
C
  6
CONTINUOUS
 62
     4
 10
323.529204
 20
198.120295
 11
323.529206
 21
203.120301
  0
LINE
  8
C
  6
CONTINUOUS
 62
     4
 10
323.529206
 20
203.120301
 11
323.529207
 21
207.501134
  0
ARC
  8
C
  6
CONTINUOUS
 62
     4
 10
327.779226
 20
202.751164
 40
2.749975
 50
359.999478
 51
180.000522
  0
ARC
  8
C
  6
CONTINUOUS
 62
     4
 10
327.779201
 20
202.751136
 40
1.250006
 50
0.000156
 51
179.999844
  0
ENDBLK
  8
0
  0
BLOCK
  8
DIMENSION
  2
*D6
 70
    65
 10
0.000000
 20
0.000000
 30
0.000000
  3
*D
  0
LINE
  8
DIMENSION
  6
BYBLOCK
 62
     3
 10
315.129215
 20
195.260931
 11
315.129215
 21
207.300000
  0
LINE
  8
DIMENSION
  6
BYBLOCK
 62
     3
 10
279.866244
 20
206.500000
 11
315.129215
 21
206.500000
  0
LINE
  8
DIMENSION
  6
BYBLOCK
 62
     3
 10
311.429215
 20
206.950000
 11
315.129215
 21
206.500000
  0
LINE
  8
DIMENSION
  6
BYBLOCK
 62
     3
 10
315.129215
 20
206.500000
 11
311.429215
 21
206.050000
  0
LINE
  8
DIMENSION
  6
BYBLOCK
 62
     3
 10
311.429215
 20
206.050000
 11
311.429215
 21
206.950000
  0
LINE
  8
DIMENSION
  6
BYBLOCK
 62
     3
 10
315.129215
 20
206.500000
 11
317.478248
 21
206.500000
  0
LINE
  8
DIMENSION
  6
BYBLOCK
 62
     3
 10
317.478248
 20
206.500000
 11
322.315030
 21
206.500000
  0
LINE
  8
DIMENSION
  6
BYBLOCK
 62
     3
 10
321.178248
 20
206.050000
 11
317.478248
 21
206.500000
  0
LINE
  8
DIMENSION
  6
BYBLOCK
 62
     3
 10
317.478248
 20
206.500000
 11
321.178248
 21
206.950000
  0
LINE
  8
DIMENSION
  6
BYBLOCK
 62
     3
 10
321.178248
 20
206.950000
 11
321.178248
 21
206.050000
  0
LINE
  8
DIMENSION
  6
BYBLOCK
 62
     3
 10
317.478248
 20
207.300000
 11
317.478248
 21
198.500000
  0
TEXT
  8
DIMENSION
 62
     4
 10
279.625000
 20
208.250000
 40
3.500000
  1
2.35 Luft
 50
0.000000
 41
0.719643
 51
0.000000
  7
STANDARD
 72
     5
 11
299.775000
 21
208.250000
 73
     0
  0
POINT
  8
DIMENSION
  6
BYBLOCK
 62
     9
 10
315.129215
 20
178.815972
  0
POINT
  8
DIMENSION
  6
BYBLOCK
 62
     9
 10
317.478248
 20
176.599256
  0
ENDBLK
  8
0
  0
BLOCK
  8
C
  2
B-12
 70
    66
 10
0.000000
 20
0.000000
 30
0.000000
  0
LINE
  8
C
  6
CONTINUOUS
 62
     7
 10
327.978212
 20
190.799240
 11
327.978221
 21
188.199227
  0
LINE
  8
C
  6
CONTINUOUS
 62
     7
 10
327.978221
 20
188.199227
 11
327.978221
 21
187.849226
  0
LINE
  8
C
  6
CONTINUOUS
 62
     7
 10
327.978221
 20
187.849226
 11
327.978221
 21
187.099244
  0
LINE
  8
C
  6
CONTINUOUS
 62
     7
 10
327.978221
 20
187.099244
 11
327.978221
 21
183.820082
  0
LINE
  8
C
  6
CONTINUOUS
 62
     7
 10
324.978221
 20
187.599243
 11
327.478208
 21
187.599243
  0
LINE
  8
C
  6
CONTINUOUS
 62
     7
 10
327.478208
 20
189.299216
 11
324.978221
 21
189.299216
  0
ARC
  8
C
  6
CONTINUOUS
 62
     7
 10
327.478226
 20
188.799238
 40
0.500000
 50
359.998792
 51
90.002031
  0
LINE
  8
C
  6
CONTINUOUS
 62
     7
 10
324.978221
 20
183.320084
 11
327.478208
 21
183.320084
  0
LINE
  8
C
  6
CONTINUOUS
 62
     7
 10
327.978221
 20
183.820094
 11
327.972947
 21
183.761822
  0
LINE
  8
C
  6
CONTINUOUS
 62
     7
 10
327.478208
 20
183.320096
 11
327.550487
 21
183.325355
  0
LINE
  8
C
  6
CONTINUOUS
 62
     7
 10
327.550487
 20
183.325355
 11
327.624749
 21
183.342116
  0
LINE
  8
C
  6
CONTINUOUS
 62
     7
 10
327.624749
 20
183.342116
 11
327.698321
 21
183.371315
  0
LINE
  8
C
  6
CONTINUOUS
 62
     7
 10
327.698321
 20
183.371315
 11
327.768107
 21
183.413024
  0
LINE
  8
C
  6
CONTINUOUS
 62
     7
 10
327.768107
 20
183.413024
 11
327.831041
 21
183.466316
  0
LINE
  8
C
  6
CONTINUOUS
 62
     7
 10
327.831041
 20
183.466316
 11
327.884408
 21
183.529262
  0
LINE
  8
C
  6
CONTINUOUS
 62
     7
 10
327.884408
 20
183.529262
 11
327.926288
 21
183.599174
  0
LINE
  8
C
  6
CONTINUOUS
 62
     7
 10
327.926288
 20
183.599174
 11
327.955688
 21
183.672935
  0
LINE
  8
C
  6
CONTINUOUS
 62
     7
 10
327.955688
 20
183.672935
 11
327.972689
 21
183.747476
  0
LINE
  8
C
  6
CONTINUOUS
 62
     7
 10
327.972689
 20
183.747476
 11
327.978221
 21
183.820094
  0
LINE
  8
C
  6
CONTINUOUS
 62
     7
 10
324.978221
 20
200.099228
 11
324.978221
 21
198.099227
  0
LINE
  8
C
  6
CONTINUOUS
 62
     7
 10
324.978221
 20
198.099227
 11
324.978221
 21
197.599226
  0
LINE
  8
C
  6
CONTINUOUS
 62
     7
 10
324.978221
 20
197.599226
 11
324.978221
 21
191.949215
  0
LINE
  8
C
  6
CONTINUOUS
 62
     7
 10
324.978221
 20
191.949215
 11
324.978221
 21
191.449226
  0
LINE
  8
C
  6
CONTINUOUS
 62
     7
 10
324.978221
 20
191.449226
 11
324.978221
 21
190.949234
  0
LINE
  8
C
  6
CONTINUOUS
 62
     7
 10
324.978221
 20
190.949234
 11
324.978221
 21
190.749236
  0
LINE
  8
C
  6
CONTINUOUS
 62
     7
 10
324.978221
 20
190.749236
 11
324.978221
 21
190.249226
  0
LINE
  8
C
  6
CONTINUOUS
 62
     7
 10
324.978221
 20
190.249226
 11
324.978221
 21
189.749234
  0
LINE
  8
C
  6
CONTINUOUS
 62
     7
 10
324.978221
 20
189.749234
 11
324.978221
 21
185.449256
  0
LINE
  8
C
  6
CONTINUOUS
 62
     7
 10
324.978221
 20
185.449256
 11
324.978221
 21
184.949255
  0
LINE
  8
C
  6
CONTINUOUS
 62
     7
 10
324.978221
 20
184.949255
 11
324.978221
 21
184.449254
  0
LINE
  8
C
  6
CONTINUOUS
 62
     7
 10
324.978221
 20
184.449254
 11
324.978221
 21
184.249256
  0
LINE
  8
C
  6
CONTINUOUS
 62
     7
 10
324.978221
 20
184.249256
 11
324.978221
 21
183.749255
  0
LINE
  8
C
  6
CONTINUOUS
 62
     7
 10
324.978221
 20
183.749255
 11
324.978221
 21
183.249254
  0
LINE
  8
C
  6
CONTINUOUS
 62
     7
 10
324.978221
 20
183.249254
 11
324.978221
 21
177.599255
  0
LINE
  8
C
  6
CONTINUOUS
 62
     7
 10
324.978221
 20
177.599255
 11
324.978221
 21
177.099254
  0
LINE
  8
C
  6
CONTINUOUS
 62
     7
 10
324.978221
 20
177.099254
 11
324.978221
 21
175.099256
  0
LINE
  8
C
  6
CONTINUOUS
 62
     7
 10
318.978257
 20
200.099228
 11
319.978256
 21
200.099228
  0
LINE
  8
C
  6
CONTINUOUS
 62
     7
 10
319.978256
 20
200.099228
 11
324.978221
 21
200.099228
  0
LINE
  8
C
  6
CONTINUOUS
 62
     7
 10
319.978238
 20
175.099256
 11
318.978257
 21
175.099256
  0
LINE
  8
C
  6
CONTINUOUS
 62
     7
 10
324.978221
 20
175.099256
 11
319.978238
 21
175.099256
  0
ARC
  8
C
  6
CONTINUOUS
 62
     7
 10
318.978236
 20
198.599248
 40
1.500000
 50
89.999187
 51
180.000517
  0
LINE
  8
C
  6
CONTINUOUS
 62
     7
 10
317.478248
 20
198.599234
 11
317.478248
 21
176.599256
  0
ARC
  8
C
  6
CONTINUOUS
 62
     7
 10
318.978236
 20
176.599238
 40
1.500000
 50
179.999295
 51
270.000813
  0
LINE
  8
C
  6
CONTINUOUS
 62
     7
 10
316.678250
 20
185.349254
 11
317.478248
 21
185.349254
  0
LINE
  8
C
  6
CONTINUOUS
 62
     7
 10
317.478248
 20
189.849227
 11
316.678250
 21
189.849227
  0
LINE
  8
C
  6
CONTINUOUS
 62
     7
 10
316.478249
 20
187.899215
 11
316.478249
 21
188.399228
  0
LINE
  8
C
  6
CONTINUOUS
 62
     7
 10
316.478249
 20
188.399228
 11
316.478249
 21
189.549236
  0
LINE
  8
C
  6
CONTINUOUS
 62
     7
 10
316.478249
 20
189.549236
 11
316.478249
 21
189.649226
  0
LINE
  8
C
  6
CONTINUOUS
 62
     7
 10
316.478249
 20
185.549255
 11
316.478249
 21
185.649254
  0
LINE
  8
C
  6
CONTINUOUS
 62
     7
 10
316.478249
 20
185.649254
 11
316.478249
 21
186.799256
  0
LINE
  8
C
  6
CONTINUOUS
 62
     7
 10
316.478249
 20
186.799256
 11
316.478249
 21
187.299242
  0
LINE
  8
C
  6
CONTINUOUS
 62
     7
 10
316.478249
 20
187.899215
 11
316.478249
 21
187.799228
  0
LINE
  8
C
  6
CONTINUOUS
 62
     7
 10
316.478249
 20
187.799228
 11
316.478249
 21
187.399256
  0
LINE
  8
C
  6
CONTINUOUS
 62
     7
 10
316.478249
 20
187.399256
 11
316.478249
 21
187.299242
  0
LINE
  8
C
  6
CONTINUOUS
 62
     7
 10
316.678250
 20
188.099216
 11
317.478269
 21
188.099216
  0
LINE
  8
C
  6
CONTINUOUS
 62
     7
 10
316.678250
 20
187.099244
 11
317.478269
 21
187.099244
  0
ARC
  8
C
  6
CONTINUOUS
 62
     7
 10
316.678246
 20
185.549238
 40
0.200000
 50
179.994998
 51
270.006382
  0
ARC
  8
C
  6
CONTINUOUS
 62
     7
 10
316.678246
 20
189.649238
 40
0.200000
 50
89.993618
 51
180.004167
  0
ARC
  8
C
  6
CONTINUOUS
 62
     7
 10
316.678246
 20
187.299228
 40
0.200000
 50
179.995858
 51
270.006382
  0
ARC
  8
C
  6
CONTINUOUS
 62
     7
 10
316.678246
 20
187.899228
 40
0.200000
 50
89.993618
 51
180.003594
  0
LINE
  8
C
  6
CONTINUOUS
 62
     7
 10
318.478250
 20
198.599234
 11
318.487196
 21
198.764447
  0
LINE
  8
C
  6
CONTINUOUS
 62
     7
 10
318.487196
 20
198.764447
 11
318.513956
 21
198.925748
  0
LINE
  8
C
  6
CONTINUOUS
 62
     7
 10
318.513956
 20
198.925748
 11
318.557789
 21
199.081835
  0
LINE
  8
C
  6
CONTINUOUS
 62
     7
 10
318.557789
 20
199.081835
 11
318.617897
 21
199.231535
  0
LINE
  8
C
  6
CONTINUOUS
 62
     7
 10
318.617897
 20
199.231535
 11
318.693569
 21
199.373588
  0
LINE
  8
C
  6
CONTINUOUS
 62
     7
 10
318.693569
 20
199.373588
 11
318.783989
 21
199.506746
  0
LINE
  8
C
  6
CONTINUOUS
 62
     7
 10
318.783989
 20
199.506746
 11
318.888416
 21
199.629794
  0
LINE
  8
C
  6
CONTINUOUS
 62
     7
 10
318.888416
 20
199.629794
 11
319.006076
 21
199.741475
  0
LINE
  8
C
  6
CONTINUOUS
 62
     7
 10
319.006076
 20
199.741475
 11
319.136258
 21
199.840568
  0
LINE
  8
C
  6
CONTINUOUS
 62
     7
 10
319.136258
 20
199.840568
 11
319.278116
 21
199.925834
  0
LINE
  8
C
  6
CONTINUOUS
 62
     7
 10
319.278116
 20
199.925834
 11
319.343528
 21
199.958354
  0
LINE
  8
C
  6
CONTINUOUS
 62
     7
 10
319.343528
 20
199.958354
 11
319.410329
 21
199.987574
  0
LINE
  8
C
  6
CONTINUOUS
 62
     7
 10
319.410329
 20
199.987574
 11
319.478408
 21
200.013494
  0
LINE
  8
C
  6
CONTINUOUS
 62
     7
 10
319.478408
 20
200.013494
 11
319.547618
 21
200.036048
  0
LINE
  8
C
  6
CONTINUOUS
 62
     7
 10
319.547618
 20
200.036048
 11
319.617788
 21
200.055227
  0
LINE
  8
C
  6
CONTINUOUS
 62
     7
 10
319.617788
 20
200.055227
 11
319.688816
 21
200.070974
  0
LINE
  8
C
  6
CONTINUOUS
 62
     7
 10
319.688816
 20
200.070974
 11
319.760510
 21
200.083286
  0
LINE
  8
C
  6
CONTINUOUS
 62
     7
 10
319.760510
 20
200.083286
 11
319.832750
 21
200.092115
  0
LINE
  8
C
  6
CONTINUOUS
 62
     7
 10
319.832750
 20
200.092115
 11
319.905368
 21
200.097446
  0
LINE
  8
C
  6
CONTINUOUS
 62
     7
 10
319.905368
 20
200.097446
 11
319.978256
 21
200.099228
  0
LINE
  8
C
  6
CONTINUOUS
 62
     7
 10
318.478250
 20
176.599256
 11
318.478250
 21
198.599234
  0
LINE
  8
C
  6
CONTINUOUS
 62
     7
 10
319.978256
 20
175.099256
 11
319.874858
 21
175.102814
  0
LINE
  8
C
  6
CONTINUOUS
 62
     7
 10
319.874858
 20
175.102814
 11
319.772369
 21
175.113422
  0
LINE
  8
C
  6
CONTINUOUS
 62
     7
 10
319.772369
 20
175.113422
 11
319.671137
 21
175.130954
  0
LINE
  8
C
  6
CONTINUOUS
 62
     7
 10
319.671137
 20
175.130954
 11
319.571549
 21
175.155335
  0
LINE
  8
C
  6
CONTINUOUS
 62
     7
 10
319.571549
 20
175.155335
 11
319.473917
 21
175.186436
  0
LINE
  8
C
  6
CONTINUOUS
 62
     7
 10
319.473917
 20
175.186436
 11
319.378589
 21
175.224164
  0
LINE
  8
C
  6
CONTINUOUS
 62
     7
 10
319.378589
 20
175.224164
 11
319.285937
 21
175.268402
  0
LINE
  8
C
  6
CONTINUOUS
 62
     7
 10
319.285937
 20
175.268402
 11
319.196276
 21
175.319042
  0
LINE
  8
C
  6
CONTINUOUS
 62
     7
 10
319.196276
 20
175.319042
 11
319.109990
 21
175.375994
  0
LINE
  8
C
  6
CONTINUOUS
 62
     7
 10
319.109990
 20
175.375994
 11
319.027397
 21
175.439144
  0
LINE
  8
C
  6
CONTINUOUS
 62
     7
 10
319.027397
 20
175.439144
 11
318.982010
 21
175.477943
  0
LINE
  8
C
  6
CONTINUOUS
 62
     7
 10
318.982010
 20
175.477943
 11
318.938228
 21
175.518455
  0
LINE
  8
C
  6
CONTINUOUS
 62
     7
 10
318.938228
 20
175.518455
 11
318.896108
 21
175.560614
  0
LINE
  8
C
  6
CONTINUOUS
 62
     7
 10
318.896108
 20
175.560614
 11
318.855698
 21
175.604384
  0
LINE
  8
C
  6
CONTINUOUS
 62
     7
 10
318.855698
 20
175.604384
 11
318.817070
 21
175.649702
  0
LINE
  8
C
  6
CONTINUOUS
 62
     7
 10
318.817070
 20
175.649702
 11
318.780248
 21
175.696523
  0
LINE
  8
C
  6
CONTINUOUS
 62
     7
 10
318.780248
 20
175.696523
 11
318.745316
 21
175.744796
  0
LINE
  8
C
  6
CONTINUOUS
 62
     7
 10
318.745316
 20
175.744796
 11
318.712328
 21
175.794455
  0
LINE
  8
C
  6
CONTINUOUS
 62
     7
 10
318.712328
 20
175.794455
 11
318.681308
 21
175.845464
  0
LINE
  8
C
  6
CONTINUOUS
 62
     7
 10
318.681308
 20
175.845464
 11
318.652349
 21
175.897754
  0
LINE
  8
C
  6
CONTINUOUS
 62
     7
 10
318.652349
 20
175.897754
 11
318.620057
 21
175.962734
  0
LINE
  8
C
  6
CONTINUOUS
 62
     7
 10
318.620057
 20
175.962734
 11
318.590837
 21
176.029475
  0
LINE
  8
C
  6
CONTINUOUS
 62
     7
 10
318.590837
 20
176.029475
 11
318.564788
 21
176.097743
  0
LINE
  8
C
  6
CONTINUOUS
 62
     7
 10
318.564788
 20
176.097743
 11
318.541988
 21
176.167334
  0
LINE
  8
C
  6
CONTINUOUS
 62
     7
 10
318.541988
 20
176.167334
 11
318.522518
 21
176.237984
  0
LINE
  8
C
  6
CONTINUOUS
 62
     7
 10
318.522518
 20
176.237984
 11
318.506468
 21
176.309474
  0
LINE
  8
C
  6
CONTINUOUS
 62
     7
 10
318.506468
 20
176.309474
 11
318.493928
 21
176.381576
  0
LINE
  8
C
  6
CONTINUOUS
 62
     7
 10
318.493928
 20
176.381576
 11
318.484988
 21
176.454074
  0
LINE
  8
C
  6
CONTINUOUS
 62
     7
 10
318.484988
 20
176.454074
 11
318.479738
 21
176.526695
  0
LINE
  8
C
  6
CONTINUOUS
 62
     7
 10
318.479738
 20
176.526695
 11
318.478250
 21
176.599256
  0
LINE
  8
C
  6
CONTINUOUS
 62
     2
 10
318.401330
 20
175.214642
 11
318.401330
 21
175.214636
  0
LINE
  8
C
  6
CONTINUOUS
 62
     7
 10
327.478211
 20
191.299238
 11
324.978221
 21
191.299238
  0
ARC
  8
C
  6
CONTINUOUS
 62
     7
 10
327.478223
 20
190.799248
 40
0.500000
 50
359.999084
 51
90.001377
  0
LINE
  8
DIMENSION
  6
CONTINUOUS
 62
     3
 10
287.725602
 20
141.377802
 11
295.701625
 21
175.929065
  0
LINE
  8
DIMENSION
  6
CONTINUOUS
 62
     3
 10
294.524618
 20
172.608725
 11
295.701625
 21
175.929065
  0
LINE
  8
DIMENSION
  6
CONTINUOUS
 62
     3
 10
295.701625
 20
175.929065
 11
295.304117
 21
172.428780
  0
LINE
  8
DIMENSION
  6
CONTINUOUS
 62
     3
 10
295.304117
 20
172.428780
 11
294.524618
 21
172.608725
  0
LINE
  8
DIMENSION
  6
CONTINUOUS
 62
     3
 10
186.628420
 20
236.961873
 11
119.700000
 21
206.500000
  0
LINE
  8
DIMENSION
  6
CONTINUOUS
 62
     3
 10
186.628420
 20
236.961873
 11
129.700000
 21
206.500000
  0
TEXT
  8
TEXT
 62
     7
 10
330.715417
 20
145.778629
 40
3.500000
  1
Kontaktfl%%132chen 1.5mm
 50
0.000000
 41
0.827257
 51
0.000000
  7
STANDARD
 72
     5
 11
382.340417
 21
145.778629
 73
     0
  0
TEXT
  8
TEXT
 62
     7
 10
330.715417
 20
139.478629
 40
3.500000
  1
  tief einfr%%132sen!
 50
0.000000
 41
0.872905
 51
0.000000
  7
STANDARD
 72
     5
 11
374.465417
 21
139.478629
 73
     0
  0
LINE
  8
TEXT
  6
CONTINUOUS
 62
     4
 10
330.715417
 20
138.078629
 11
382.340417
 21
138.078629
  0
ARC
  8
TEXT
  6
CONTINUOUS
 62
     4
 10
382.340417
 20
141.228629
 40
3.150000
 50
270.000000
 51
0.000000
  0
LINE
  8
TEXT
  6
CONTINUOUS
 62
     4
 10
385.490417
 20
141.228629
 11
385.490417
 21
147.528629
  0
ARC
  8
TEXT
  6
CONTINUOUS
 62
     4
 10
382.340417
 20
147.528629
 40
3.150000
 50
0.000000
 51
90.000000
  0
LINE
  8
TEXT
  6
CONTINUOUS
 62
     4
 10
382.340417
 20
150.678629
 11
330.715417
 21
150.678629
  0
ARC
  8
TEXT
  6
CONTINUOUS
 62
     4
 10
330.715417
 20
147.528629
 40
3.150000
 50
90.000000
 51
180.000000
  0
LINE
  8
TEXT
  6
CONTINUOUS
 62
     4
 10
327.565417
 20
147.528629
 11
327.565417
 21
141.228629
  0
ARC
  8
TEXT
  6
CONTINUOUS
 62
     4
 10
330.715417
 20
141.228629
 40
3.150000
 50
180.000000
 51
270.000000
  0
TEXT
  8
TEXT
 62
     7
 10
235.399200
 20
136.432125
 40
3.500000
  1
St%%148%%225elkontakte OHNE Flach-
 50
0.000000
 41
0.791204
 51
0.000000
  7
STANDARD
 72
     5
 11
302.774200
 21
136.432125
 73
     0
  0
TEXT
  8
TEXT
 62
     7
 10
235.399200
 20
130.132125
 40
3.500000
  1
    schiene montieren!
 50
0.000000
 41
0.848564
 51
0.000000
  7
STANDARD
 72
     5
 11
292.274200
 21
130.132125
 73
     0
  0
TEXT
  8
TEXT
 62
     7
 10
235.399200
 20
123.832125
 40
3.500000
  1
(Basisteil v. 1-0881-169/3)
 50
0.000000
 41
0.895656
 51
0.000000
  7
STANDARD
 72
     5
 11
305.399200
 21
123.832125
 73
     0
  0
LINE
  8
TEXT
  6
CONTINUOUS
 62
     4
 10
235.399200
 20
122.432125
 11
305.399200
 21
122.432125
  0
ARC
  8
TEXT
  6
CONTINUOUS
 62
     4
 10
305.399200
 20
125.582125
 40
3.150000
 50
270.000000
 51
0.000000
  0
LINE
  8
TEXT
  6
CONTINUOUS
 62
     4
 10
308.549200
 20
125.582125
 11
308.549200
 21
138.182125
  0
ARC
  8
TEXT
  6
CONTINUOUS
 62
     4
 10
305.399200
 20
138.182125
 40
3.150000
 50
0.000000
 51
90.000000
  0
LINE
  8
TEXT
  6
CONTINUOUS
 62
     4
 10
305.399200
 20
141.332125
 11
235.399200
 21
141.332125
  0
ARC
  8
TEXT
  6
CONTINUOUS
 62
     4
 10
235.399200
 20
138.182125
 40
3.150000
 50
90.000000
 51
180.000000
  0
LINE
  8
TEXT
  6
CONTINUOUS
 62
     4
 10
232.249200
 20
138.182125
 11
232.249200
 21
125.582125
  0
ARC
  8
TEXT
  6
CONTINUOUS
 62
     4
 10
235.399200
 20
125.582125
 40
3.150000
 50
180.000000
 51
270.000000
  0
TEXT
  8
TEXT
 62
     7
 10
120.128420
 20
250.961873
 40
3.500000
  1
 ACHTUNG: Im Bereich der Treibstangen muss die
 50
0.000000
 41
0.809310
 51
0.000000
  7
STANDARD
 72
     5
 11
240.003420
 21
250.961873
 73
     0
  0
TEXT
  8
TEXT
 62
     7
 10
120.128420
 20
244.661873
 40
3.500000
  1
thermische Trennung 1mm tief eingefr%%132st werden,
 50
0.000000
 41
0.814332
 51
0.000000
  7
STANDARD
 72
     5
 11
242.628420
 21
244.661873
 73
     0
  0
TEXT
  8
TEXT
 62
     7
 10
120.128420
 20
238.361873
 40
3.500000
  1
  da sonst die Treibstangen geklemmt werden!
 50
0.000000
 41
0.809042
 51
0.000000
  7
STANDARD
 72
     5
 11
234.753420
 21
238.361873
 73
     0
  0
LINE
  8
TEXT
  6
CONTINUOUS
 62
     4
 10
120.128420
 20
236.961873
 11
242.628420
 21
236.961873
  0
ARC
  8
TEXT
  6
CONTINUOUS
 62
     4
 10
242.628420
 20
240.111873
 40
3.150000
 50
270.000000
 51
0.000000
  0
LINE
  8
TEXT
  6
CONTINUOUS
 62
     4
 10
245.778420
 20
240.111873
 11
245.778420
 21
252.711873
  0
ARC
  8
TEXT
  6
CONTINUOUS
 62
     4
 10
242.628420
 20
252.711873
 40
3.150000
 50
0.000000
 51
90.000000
  0
LINE
  8
TEXT
  6
CONTINUOUS
 62
     4
 10
242.628420
 20
255.861873
 11
120.128420
 21
255.861873
  0
ARC
  8
TEXT
  6
CONTINUOUS
 62
     4
 10
120.128420
 20
252.711873
 40
3.150000
 50
90.000000
 51
180.000000
  0
LINE
  8
TEXT
  6
CONTINUOUS
 62
     4
 10
116.978420
 20
252.711873
 11
116.978420
 21
240.111873
  0
ARC
  8
TEXT
  6
CONTINUOUS
 62
     4
 10
120.128420
 20
240.111873
 40
3.150000
 50
180.000000
 51
270.000000
  0
ENDBLK
  8
0
  0
BLOCK
  8
C
  2
B-13
 70
    66
 10
0.000000
 20
0.000000
 30
0.000000
  0
LINE
  8
C
  6
CONTINUOUS
 62
     7
 10
-0.349995
 20
200.000007
 11
19.649999
 21
200.000007
  0
LINE
  8
C
  6
CONTINUOUS
 62
     7
 10
19.649999
 20
215.000007
 11
4.350005
 21
215.000007
  0
LINE
  8
C
  6
CONTINUOUS
 62
     7
 10
4.350005
 20
226.000007
 11
19.649999
 21
226.000007
  0
LINE
  8
C
  6
CONTINUOUS
 62
     7
 10
19.649999
 20
237.000007
 11
4.350005
 21
237.000007
  0
LINE
  8
C
  6
CONTINUOUS
 62
     7
 10
4.350005
 20
248.000000
 11
14.650000
 21
247.999998
  0
LINE
  8
C
  6
CONTINUOUS
 62
     7
 10
14.650000
 20
258.999998
 11
4.350005
 21
259.000000
  0
LINE
  8
C
  6
CONTINUOUS
 62
     7
 10
4.350005
 20
269.999999
 11
14.650000
 21
269.999998
  0
LINE
  8
C
  6
CONTINUOUS
 62
     7
 10
14.650000
 20
280.999998
 11
4.350005
 21
280.999999
  0
LINE
  8
C
  6
CONTINUOUS
 62
     3
 10
4.350005
 20
291.999999
 11
4.350005
 21
200.000007
  0
LINE
  8
C
  6
CONTINUOUS
 62
     3
 10
9.649999
 20
200.000007
 11
9.649999
 21
292.000000
  0
LINE
  8
C
  6
CONTINUOUS
 62
     3
 10
14.649999
 20
292.000000
 11
14.649999
 21
200.000007
  0
TEXT
  8
TEXT
 62
     3
 10
3.144154
 20
220.803396
 40
2.500000
  1
Grenzabma%%225e nach ISO 2768 - m
 50
90.000000
 41
0.772548
 51
0.000000
  7
STANDARD
 72
     5
 11
3.144154
 21
274.553396
 73
     0
  0
TEXT
  8
TEXT
 62
     3
 10
8.144154
 20
200.740896
 40
2.500000
  1
Nennma%%225e
 50
90.000000
 41
0.754190
 51
0.000000
  7
STANDARD
 72
     5
 11
8.144154
 21
214.240896
 73
     0
  0
TEXT
  8
TEXT
 62
     3
 10
13.144154
 20
200.740896
 40
2.500000
  1
L%%132ngen
 50
90.000000
 41
0.750469
 51
0.000000
  7
STANDARD
 72
     5
 11
13.144154
 21
210.740896
 73
     0
  0
TEXT
  8
TEXT
 62
     3
 10
18.144154
 20
200.740896
 40
2.500000
  1
Rad.Fase
 50
90.000000
 41
0.771429
 51
0.000000
  7
STANDARD
 72
     5
 11
18.144154
 21
214.240896
 73
     0
  0
TEXT
  8
TEXT
 62
     3
 10
6.496654
 20
216.590896
 40
1.500000
  1
> 0.5
 50
90.000000
 41
1.420765
 51
0.000000
  7
STANDARD
 72
     5
 11
6.496654
 21
224.390896
 73
     0
  0
TEXT
  8
TEXT
 62
     3
 10
9.016654
 20
216.590896
 40
1.500000
  1
< 3  
 50
90.000000
 41
1.247002
 51
0.000000
  7
STANDARD
 72
     5
 11
9.016654
 21
224.390896
 73
     0
  0
TEXT
  8
TEXT
 62
     3
 10
6.496654
 20
229.290896
 40
1.500000
  1
> 3
 50
90.000000
 41
1.173333
 51
0.000000
  7
STANDARD
 72
     5
 11
6.496654
 21
233.690896
 73
     0
  0
TEXT
  8
TEXT
 62
     3
 10
9.016654
 20
229.290896
 40
1.500000
  1
< 6
 50
90.000000
 41
1.253561
 51
0.000000
  7
STANDARD
 72
     5
 11
9.016654
 21
233.690896
 73
     0
  0
TEXT
  8
TEXT
 62
     3
 10
6.496654
 20
238.590896
 40
1.500000
  1
> 6 
 50
90.000000
 41
1.221221
 51
0.000000
  7
STANDARD
 72
     5
 11
6.496654
 21
244.690896
 73
     0
  0
TEXT
  8
TEXT
 62
     3
 10
9.016654
 20
238.590896
 40
1.500000
  1
< 30 
 50
90.000000
 41
1.300000
 51
0.000000
  7
STANDARD
 72
     5
 11
9.016654
 21
246.390896
 73
     0
  0
TEXT
  8
TEXT
 62
     3
 10
6.496654
 20
249.590896
 40
1.500000
  1
> 30
 50
90.000000
 41
1.221221
 51
0.000000
  7
STANDARD
 72
     5
 11
6.496654
 21
255.690896
 73
     0
  0
TEXT
  8
TEXT
 62
     3
 10
9.016654
 20
249.590896
 40
1.500000
  1
< 120
 50
90.000000
 41
1.354167
 51
0.000000
  7
STANDARD
 72
     5
 11
9.016654
 21
257.390896
 73
     0
  0
TEXT
  8
TEXT
 62
     3
 10
6.496654
 20
260.590896
 40
1.500000
  1
> 120
 50
90.000000
 41
1.300000
 51
0.000000
  7
STANDARD
 72
     5
 11
6.496654
 21
268.390896
 73
     0
  0
TEXT
  8
TEXT
 62
     3
 10
9.016654
 20
260.590896
 40
1.500000
  1
< 400
 50
90.000000
 41
1.300000
 51
0.000000
  7
STANDARD
 72
     5
 11
9.016654
 21
268.390896
 73
     0
  0
TEXT
  8
TEXT
 62
     3
 10
6.496654
 20
270.740896
 40
1.500000
  1
> 400
 50
90.000000
 41
1.250000
 51
0.000000
  7
STANDARD
 72
     5
 11
6.496654
 21
278.540896
 73
     0
  0
TEXT
  8
TEXT
 62
     3
 10
9.016654
 20
270.740896
 40
1.500000
  1
< 1000
 50
90.000000
 41
1.407407
 51
0.000000
  7
STANDARD
 72
     5
 11
9.016654
 21
280.240896
 73
     0
  0
TEXT
  8
TEXT
 62
     3
 10
6.496654
 20
281.740896
 40
1.500000
  1
> 1000
 50
90.000000
 41
1.359084
 51
0.000000
  7
STANDARD
 72
     5
 11
6.496654
 21
291.240896
 73
     0
  0
TEXT
  8
TEXT
 62
     3
 10
9.016654
 20
281.740896
 40
1.500000
  1
< 2000
 50
90.000000
 41
1.311249
 51
0.000000
  7
STANDARD
 72
     5
 11
9.016654
 21
291.240896
 73
     0
  0
TEXT
  8
TEXT
 62
     3
 10
13.400404
 20
216.640896
 40
2.500000
  1
%%P0.1
 50
90.000000
 41
1.236948
 51
0.000000
  7
STANDARD
 72
     5
 11
13.400404
 21
224.340896
 73
     0
  0
TEXT
  8
TEXT
 62
     3
 10
13.400404
 20
227.640896
 40
2.500000
  1
%%P0.1
 50
90.000000
 41
1.236948
 51
0.000000
  7
STANDARD
 72
     5
 11
13.400404
 21
235.340896
 73
     0
  0
TEXT
  8
TEXT
 62
     3
 10
13.400404
 20
238.640896
 40
2.500000
  1
%%P0.2
 50
90.000000
 41
1.088339
 51
0.000000
  7
STANDARD
 72
     5
 11
13.400404
 21
246.340896
 73
     0
  0
TEXT
  8
TEXT
 62
     3
 10
13.400404
 20
249.640896
 40
2.500000
  1
%%P0.3
 50
90.000000
 41
1.088339
 51
0.000000
  7
STANDARD
 72
     5
 11
13.400404
 21
257.340896
 73
     0
  0
TEXT
  8
TEXT
 62
     3
 10
13.400404
 20
260.640896
 40
2.500000
  1
%%P0.5
 50
90.000000
 41
1.088339
 51
0.000000
  7
STANDARD
 72
     5
 11
13.400404
 21
268.340896
 73
     0
  0
TEXT
  8
TEXT
 62
     3
 10
13.400404
 20
271.640896
 40
2.500000
  1
%%P0.8
 50
90.000000
 41
1.088339
 51
0.000000
  7
STANDARD
 72
     5
 11
13.400404
 21
279.340896
 73
     0
  0
TEXT
  8
TEXT
 62
     3
 10
13.400404
 20
282.640896
 40
2.500000
  1
%%P1.2
 50
90.000000
 41
1.153558
 51
0.000000
  7
STANDARD
 72
     5
 11
13.400404
 21
290.340896
 73
     0
  0
TEXT
  8
TEXT
 62
     3
 10
18.400404
 20
260.457958
 40
2.500000
  1
%%P1
 50
90.000000
 41
1.052632
 51
0.000000
  7
STANDARD
 72
     5
 11
18.400404
 21
263.957958
 73
     0
  0
TEXT
  8
TEXT
 62
     3
 10
18.400404
 20
227.640896
 40
2.500000
  1
%%P0.5
 50
90.000000
 41
1.088339
 51
0.000000
  7
STANDARD
 72
     5
 11
18.400404
 21
235.340896
 73
     0
  0
TEXT
  8
TEXT
 62
     3
 10
18.400404
 20
216.640896
 40
2.500000
  1
%%P0.2
 50
90.000000
 41
1.088339
 51
0.000000
  7
STANDARD
 72
     5
 11
18.400404
 21
224.340896
 73
     0
  0
ENDBLK
  8
0
  0
BLOCK
  8
C
  2
B-14
 70
    66
 10
0.000000
 20
0.000000
 30
0.000000
  0
LINE
  8
C
  6
CONTINUOUS
 62
     1
 10
403.843359
 20
69.110984
 11
403.843359
 21
85.910981
  0
LINE
  8
C
  6
CONTINUOUS
 62
     1
 10
401.743359
 20
88.010981
 11
363.943362
 21
88.010981
  0
ARC
  8
C
  6
CONTINUOUS
 62
     1
 10
401.743360
 20
85.910983
 40
2.100000
 50
359.999938
 51
90.000040
  0
ARC
  8
C
  6
CONTINUOUS
 62
     1
 10
363.943360
 20
85.910983
 40
2.100000
 50
89.999958
 51
180.000062
  0
LINE
  8
C
  6
CONTINUOUS
 62
     1
 10
361.843362
 20
85.910981
 11
361.843362
 21
69.110984
  0
LINE
  8
C
  6
CONTINUOUS
 62
     1
 10
363.943362
 20
67.010984
 11
401.743359
 21
67.010984
  0
ARC
  8
C
  6
CONTINUOUS
 62
     1
 10
363.943360
 20
69.110983
 40
2.100000
 50
179.999980
 51
270.000042
  0
ARC
  8
C
  6
CONTINUOUS
 62
     1
 10
401.743360
 20
69.110983
 40
2.100000
 50
269.999960
 51
0.000020
  0
ARC
  8
C
  6
CONTINUOUS
 62
     1
 10
363.943360
 20
69.110983
 40
3.150000
 50
179.999987
 51
270.000028
  0
LINE
  8
C
  6
CONTINUOUS
 62
     1
 10
360.793362
 20
69.110984
 11
360.793362
 21
85.910982
  0
ARC
  8
C
  6
CONTINUOUS
 62
     1
 10
363.943360
 20
85.910983
 40
3.150000
 50
89.999972
 51
180.000023
  0
LINE
  8
C
  6
CONTINUOUS
 62
     1
 10
363.943362
 20
89.060982
 11
401.743360
 21
89.060981
  0
ARC
  8
C
  6
CONTINUOUS
 62
     1
 10
401.743360
 20
85.910983
 40
3.150000
 50
359.999977
 51
90.000008
  0
LINE
  8
C
  6
CONTINUOUS
 62
     1
 10
404.893359
 20
85.910982
 11
404.893359
 21
69.110984
  0
ARC
  8
C
  6
CONTINUOUS
 62
     1
 10
401.743360
 20
69.110983
 40
3.150000
 50
269.999992
 51
0.000013
  0
LINE
  8
C
  6
CONTINUOUS
 62
     1
 10
401.743360
 20
65.960984
 11
363.943362
 21
65.960984
  0
TEXT
  8
TEXT
 62
     4
 10
369.529360
 20
82.410983
 40
4.200000
  1
ACHTUNG !
 50
0.000000
 41
0.792500
 51
0.000000
  7
STANDARD
 72
     5
 11
396.157360
 21
82.410983
 73
     0
  0
TEXT
  8
TEXT
 62
     4
 10
367.009360
 20
76.110983
 40
4.200000
  1
Nur f%%129r Angebot-
 50
0.000000
 41
0.486452
 51
0.000000
  7
STANDARD
 72
     5
 11
398.677360
 21
76.110983
 73
     0
  0
TEXT
  8
TEXT
 62
     4
 10
362.977360
 20
69.110983
 40
4.200000
  1
und Musteranfertigung
 50
0.000000
 41
0.485377
 51
0.000000
  7
STANDARD
 72
     5
 11
402.709360
 21
69.110983
 73
     0
  0
ENDBLK
  8
0
  0
BLOCK
  8
TEXT
  2
B-15
 70
    66
 10
0.000000
 20
0.000000
 30
0.000000
  0
TEXT
  8
TEXT
 62
     4
 10
23.571121
 20
10.123963
 40
3.500000
  1
/z/tb/to/881/Uebersichten/DORMA/Stahl-Janisol
 50
0.000000
 41
0.804129
 51
0.000000
  7
STANDARD
 72
     5
 11
140.821121
 21
10.123963
 73
     0
  0
ENDBLK
  8
0
  0
BLOCK
  8
C
  2
RAHMEN
 70
    66
 10
0.000000
 20
0.000000
 30
0.000000
  0
LINE
  8
C
  6
CONTINUOUS
 62
     3
 10
-0.350000
 20
0.000000
 11
-0.350000
 21
297.000000
  0
LINE
  8
C
  6
CONTINUOUS
 62
     3
 10
-0.350000
 20
297.000000
 11
419.650000
 21
297.000000
  0
LINE
  8
C
  6
CONTINUOUS
 62
     3
 10
419.650000
 20
297.000000
 11
419.650000
 21
0.000000
  0
LINE
  8
C
  6
CONTINUOUS
 62
     3
 10
-0.350000
 20
0.000000
 11
419.650000
 21
0.000000
  0
LINE
  8
C
  6
CONTINUOUS
 62
     7
 10
19.650000
 20
5.000000
 11
19.650000
 21
292.000000
  0
LINE
  8
C
  6
CONTINUOUS
 62
     7
 10
-0.350000
 20
292.000000
 11
414.650000
 21
292.000000
  0
LINE
  8
C
  6
CONTINUOUS
 62
     7
 10
414.650000
 20
292.000000
 11
414.650000
 21
5.000000
  0
LINE
  8
C
  6
CONTINUOUS
 62
     7
 10
414.650000
 20
5.000000
 11
19.650000
 21
5.000000
  0
LINE
  8
C
  6
CONTINUOUS
 62
     3
 10
229.650000
 20
292.000000
 11
229.650000
 21
296.000000
  0
LINE
  8
C
  6
CONTINUOUS
 62
     3
 10
124.650000
 20
296.000000
 11
124.650000
 21
292.000000
  0
LINE
  8
C
  6
CONTINUOUS
 62
     3
 10
229.650000
 20
5.000000
 11
229.650000
 21
1.000000
  0
LINE
  8
C
  6
CONTINUOUS
 62
     3
 10
124.650000
 20
1.000000
 11
124.650000
 21
5.000000
  0
LINE
  8
C
  6
CONTINUOUS
 62
     3
 10
-0.350000
 20
148.500000
 11
9.150000
 21
148.500000
  0
LINE
  8
C
  6
CONTINUOUS
 62
     3
 10
418.650000
 20
148.500000
 11
414.650000
 21
148.500000
  0
ENDBLK
  8
0
  0
BLOCK
  8
C
  2
SCHRIFTF_
 70
    66
 10
0.000000
 20
0.000000
 30
0.000000
  0
LINE
  8
C
  6
CONTINUOUS
 62
     7
 10
229.650005
 20
59.999995
 11
414.650000
 21
59.999995
  0
LINE
  8
C
  6
CONTINUOUS
 62
     7
 10
229.650005
 20
42.999995
 11
414.650000
 21
42.999995
  0
LINE
  8
C
  6
CONTINUOUS
 62
     7
 10
414.650000
 20
52.999995
 11
328.650000
 21
52.999995
  0
LINE
  8
C
  6
CONTINUOUS
 62
     7
 10
328.650000
 20
59.999995
 11
328.650000
 21
5.000000
  0
LINE
  8
C
  6
CONTINUOUS
 62
     7
 10
284.650005
 20
5.000000
 11
284.650005
 21
59.999995
  0
LINE
  8
C
  6
CONTINUOUS
 62
     7
 10
310.650005
 20
59.999995
 11
310.650005
 21
25.999999
  0
LINE
  8
C
  6
CONTINUOUS
 62
     7
 10
328.650000
 20
21.999999
 11
414.650000
 21
21.999999
  0
LINE
  8
C
  6
CONTINUOUS
 62
     7
 10
401.650000
 20
21.999999
 11
401.650000
 21
8.999999
  0
LINE
  8
C
  6
CONTINUOUS
 62
     7
 10
414.650000
 20
8.999999
 11
229.650005
 21
8.999999
  0
LINE
  8
C
  6
CONTINUOUS
 62
     7
 10
380.650000
 20
52.999995
 11
380.650000
 21
59.999995
  0
LINE
  8
C
  6
CONTINUOUS
 62
     3
 10
229.650005
 20
38.749995
 11
328.650000
 21
38.749995
  0
LINE
  8
C
  6
CONTINUOUS
 62
     3
 10
229.650005
 20
34.499995
 11
328.650000
 21
34.499995
  0
LINE
  8
C
  6
CONTINUOUS
 62
     3
 10
229.650005
 20
30.249999
 11
328.650000
 21
30.249999
  0
LINE
  8
C
  6
CONTINUOUS
 62
     3
 10
229.650005
 20
25.999999
 11
284.650005
 21
25.999999
  0
LINE
  8
C
  6
CONTINUOUS
 62
     7
 10
284.650005
 20
25.999999
 11
328.650000
 21
25.999999
  0
LINE
  8
C
  6
CONTINUOUS
 62
     3
 10
284.650005
 20
21.999999
 11
229.650005
 21
21.999999
  0
LINE
  8
C
  6
CONTINUOUS
 62
     3
 10
284.650005
 20
17.749999
 11
229.650005
 21
17.749999
  0
LINE
  8
C
  6
CONTINUOUS
 62
     3
 10
284.650005
 20
13.499999
 11
229.650005
 21
13.499999
  0
LINE
  8
C
  6
CONTINUOUS
 62
     3
 10
401.650000
 20
13.499999
 11
414.650000
 21
13.499999
  0
LINE
  8
C
  6
CONTINUOUS
 62
     3
 10
371.650000
 20
5.000000
 11
371.650000
 21
8.999999
  0
LINE
  8
C
  6
CONTINUOUS
 62
     3
 10
294.650005
 20
42.999995
 11
294.650005
 21
25.999999
  0
LINE
  8
C
  6
CONTINUOUS
 62
     3
 10
236.650005
 20
5.000000
 11
236.650005
 21
42.999995
  0
LINE
  8
C
  6
CONTINUOUS
 62
     3
 10
265.150005
 20
42.999995
 11
265.150005
 21
5.000000
  0
LINE
  8
C
  6
CONTINUOUS
 62
     3
 10
278.150005
 20
5.000000
 11
278.150005
 21
42.999995
  0
LINE
  8
C
  6
CONTINUOUS
 62
     7
 10
229.650005
 20
59.999995
 11
229.650005
 21
5.000000
  0
TEXT
  8
TEXT
 62
     7
 10
239.472950
 20
48.466180
 40
5.000000
  1
M-SVP 2000
 50
0.000000
 41
0.672287
 51
0.000000
  7
STANDARD
 72
     5
 11
271.372950
 21
48.466180
 73
     0
  0
TEXT
  8
TEXT
 62
     7
 10
348.149988
 20
12.990890
 40
5.000000
  1
ENTWICKLUNG
 50
0.000000
 41
0.749766
 51
0.000000
  7
STANDARD
 72
     5
 11
388.149988
 21
12.990890
 73
     0
  0
TEXT
  8
TEXT
 62
     3
 10
331.025003
 20
54.999997
 40
3.000000
  1
Ma%%225stab: 
 50
0.000000
 41
0.848564
 51
0.000000
  7
STANDARD
 72
     5
 11
350.525003
 21
54.999997
 73
     0
  0
TEXT
  8
TEXT
 62
     3
 10
383.025003
 20
54.998389
 40
3.000000
  1
Gew.: 
 50
0.000000
 41
1.021635
 51
0.000000
  7
STANDARD
 72
     5
 11
395.775003
 21
54.998389
 73
     0
  0
TEXT
  8
TEXT
 62
     3
 10
331.150003
 20
45.999997
 40
4.000000
  1
Werkstoff: 
 50
0.000000
 41
0.787402
 51
0.000000
  7
STANDARD
 72
     5
 11
363.150003
 21
45.999997
 73
     0
  0
TEXT
  8
TEXT
 62
     3
 10
230.662505
 20
5.995890
 40
2.000000
  1
Index
 50
0.000000
 41
0.629496
 51
0.000000
  7
STANDARD
 72
     5
 11
235.912505
 21
5.995890
 73
     0
  0
TEXT
  8
TEXT
 62
     3
 10
246.337505
 20
5.995890
 40
2.000000
  1
%%142nderung
 50
0.000000
 41
0.588336
 51
0.000000
  7
STANDARD
 72
     5
 11
254.962505
 21
5.995890
 73
     0
  0
TEXT
  8
TEXT
 62
     3
 10
265.837505
 20
5.995890
 40
2.000000
  1
Datum
 50
0.000000
 41
0.562099
 51
0.000000
  7
STANDARD
 72
     5
 11
271.087505
 21
5.995890
 73
     0
  0
TEXT
  8
TEXT
 62
     3
 10
278.837505
 20
5.995890
 40
2.000000
  1
Name 
 50
0.000000
 41
0.583333
 51
0.000000
  7
STANDARD
 72
     5
 11
284.087505
 21
5.995890
 73
     0
  0
TEXT
  8
TEXT
 62
     3
 10
329.337503
 20
5.995890
 40
2.000000
  1
Ersatz f%%129r:
 50
0.000000
 41
0.600000
 51
0.000000
  7
STANDARD
 72
     5
 11
341.337503
 21
5.995890
 73
     0
  0
TEXT
  8
TEXT
 62
     3
 10
372.337503
 20
5.995890
 40
2.000000
  1
Ersetzt durch:
 50
0.000000
 41
0.591346
 51
0.000000
  7
STANDARD
 72
     5
 11
387.712503
 21
5.995890
 73
     0
  0
TEXT
  8
TEXT
 62
     3
 10
410.737503
 20
9.995890
 40
2.000000
  1
Bl.
 50
0.000000
 41
1.000000
 51
0.000000
  7
STANDARD
 72
     5
 11
413.737503
 21
9.995890
 73
     0
  0
TEXT
  8
TEXT
 62
     3
 10
285.900005
 20
39.745889
 40
2.000000
  1
2005
 50
0.000000
 41
0.825826
 51
0.000000
  7
STANDARD
 72
     5
 11
291.400005
 21
39.745889
 73
     0
  0
TEXT
  8
TEXT
 62
     3
 10
295.900005
 20
39.745889
 40
2.000000
  1
Datum
 50
0.000000
 41
0.749465
 51
0.000000
  7
STANDARD
 72
     5
 11
302.900005
 21
39.745889
 73
     0
  0
TEXT
  8
TEXT
 62
     3
 10
311.900004
 20
39.745889
 40
2.000000
  1
Name 
 50
0.000000
 41
0.777778
 51
0.000000
  7
STANDARD
 72
     5
 11
318.900004
 21
39.745889
 73
     0
  0
TEXT
  8
TEXT
 62
     3
 10
285.537505
 20
35.495890
 40
2.000000
  1
Bearb.
 50
0.000000
 41
0.637500
 51
0.000000
  7
STANDARD
 72
     5
 11
291.912505
 21
35.495890
 73
     0
  0
TEXT
  8
TEXT
 62
     3
 10
285.481255
 20
31.245890
 40
2.000000
  1
Entwickl.
 50
0.000000
 41
0.664414
 51
0.000000
  7
STANDARD
 72
     5
 11
294.331255
 21
31.245890
 73
     0
  0
TEXT
  8
TEXT
 62
     3
 10
285.481255
 20
26.995890
 40
2.000000
  1
Freigabe
 50
0.000000
 41
0.559821
 51
0.000000
  7
STANDARD
 72
     5
 11
293.318755
 21
26.995890
 73
     0
  0
TEXT
  8
TEXT
 62
     3
 10
295.837503
 20
35.624997
 40
2.000000
  1
     
 50
0.000000
 41
0.583333
 51
0.000000
  7
STANDARD
 72
     5
 11
301.087503
 21
35.624997
 73
     0
  0
TEXT
  8
TEXT
 62
     3
 10
311.837504
 20
35.624997
 40
2.000000
  1
X
 50
0.000000
 41
0.375437
 51
0.000000
  7
STANDARD
 72
     5
 11
312.587504
 21
35.624997
 73
     0
  0
TEXT
  8
TEXT
 62
     3
 10
290.375005
 20
55.330889
 40
2.000000
  1
Allgemein-
 50
0.000000
 41
0.925926
 51
0.000000
  7
STANDARD
 72
     5
 11
304.875005
 21
55.330889
 73
     0
  0
TEXT
  8
TEXT
 62
     3
 10
290.375005
 20
51.570889
 40
2.000000
  1
toleranzen
 50
0.000000
 41
0.821065
 51
0.000000
  7
STANDARD
 72
     5
 11
304.875005
 21
51.570889
 73
     0
  0
TEXT
  8
TEXT
 62
     3
 10
404.487503
 20
18.859640
 40
2.500000
  1
Blatt
 50
0.000000
 41
0.839329
 51
0.000000
  7
STANDARD
 72
     5
 11
413.237503
 21
18.859640
 73
     0
  0
TEXT
  8
TEXT
 62
     3
 10
404.487503
 20
14.159640
 40
2.500000
  1
001
 50
0.000000
 41
1.005025
 51
0.000000
  7
STANDARD
 72
     5
 11
409.487503
 21
14.159640
 73
     0
  0
TEXT
  8
TEXT
 62
     4
 10
288.725005
 20
46.545889
 40
2.000000
  1
ISO 2768 - m
 50
0.000000
 41
0.771605
 51
0.000000
  7
STANDARD
 72
     5
 11
306.225005
 21
46.545889
 73
     0
  0
TEXT
  8
TEXT
 62
     3
 10
351.025003
 20
54.999997
 40
3.000000
  1
   
 50
0.000000
 41
0.800000
 51
0.000000
  7
STANDARD
 72
     5
 11
357.025003
 21
54.999997
 73
     0
  0
TEXT
  8
TEXT
 62
     3
 10
396.025003
 20
54.998389
 40
3.000000
  1
       
 50
0.000000
 41
0.769231
 51
0.000000
  7
STANDARD
 72
     5
 11
411.025003
 21
54.998389
 73
     0
  0
TEXT
  8
TEXT
 62
     4
 10
363.650003
 20
45.999997
 40
4.000000
  1
       
 50
0.000000
 41
0.769231
 51
0.000000
  7
STANDARD
 72
     5
 11
383.650003
 21
45.999997
 73
     0
  0
TEXT
  8
TEXT
 62
     3
 10
230.818755
 20
57.090889
 40
1.800000
  1
Artikel:
 50
0.000000
 41
0.739708
 51
0.000000
  7
STANDARD
 72
     5
 11
238.581255
 21
57.090889
 73
     0
  0
TEXT
  8
TEXT
 62
     3
 10
329.818753
 20
19.090890
 40
1.800000
  1
Zeichnungs-Nr.:
 50
0.000000
 41
0.669643
 51
0.000000
  7
STANDARD
 72
     5
 11
344.668753
 21
19.090890
 73
     0
  0
TEXT
  8
TEXT
 62
     3
 10
232.775005
 20
10.240890
 40
2.000000
  1
 
 50
0.000000
 41
0.452442
 51
0.000000
  7
STANDARD
 72
     5
 11
233.525005
 21
10.240890
 73
     0
  0
TEXT
  8
TEXT
 62
     3
 10
237.337505
 20
10.240890
 40
2.000000
  1
                         
 50
0.000000
 41
0.566327
 51
0.000000
  7
STANDARD
 72
     5
 11
265.087505
 21
10.240890
 73
     0
  0
TEXT
  8
TEXT
 62
     3
 10
265.837505
 20
10.240890
 40
2.000000
  1
           
 50
0.000000
 41
0.571429
 51
0.000000
  7
STANDARD
 72
     5
 11
277.837505
 21
10.240890
 73
     0
  0
TEXT
  8
TEXT
 62
     3
 10
278.837505
 20
10.240890
 40
2.000000
  1
     
 50
0.000000
 41
0.583333
 51
0.000000
  7
STANDARD
 72
     5
 11
284.087505
 21
10.240890
 73
     0
  0
TEXT
  8
TEXT
 62
     3
 10
232.775005
 20
14.615890
 40
2.000000
  1
 
 50
0.000000
 41
0.452442
 51
0.000000
  7
STANDARD
 72
     5
 11
233.525005
 21
14.615890
 73
     0
  0
TEXT
  8
TEXT
 62
     3
 10
232.775005
 20
18.865890
 40
2.000000
  1
 
 50
0.000000
 41
0.452442
 51
0.000000
  7
STANDARD
 72
     5
 11
233.525005
 21
18.865890
 73
     0
  0
TEXT
  8
TEXT
 62
     3
 10
232.775005
 20
22.990890
 40
2.000000
  1
 
 50
0.000000
 41
0.452442
 51
0.000000
  7
STANDARD
 72
     5
 11
233.525005
 21
22.990890
 73
     0
  0
TEXT
  8
TEXT
 62
     3
 10
232.775005
 20
27.115890
 40
2.000000
  1
 
 50
0.000000
 41
0.452442
 51
0.000000
  7
STANDARD
 72
     5
 11
233.525005
 21
27.115890
 73
     0
  0
TEXT
  8
TEXT
 62
     3
 10
232.775005
 20
31.365890
 40
2.000000
  1
 
 50
0.000000
 41
0.452442
 51
0.000000
  7
STANDARD
 72
     5
 11
233.525005
 21
31.365890
 73
     0
  0
TEXT
  8
TEXT
 62
     3
 10
232.775005
 20
35.615890
 40
2.000000
  1
 
 50
0.000000
 41
0.452442
 51
0.000000
  7
STANDARD
 72
     5
 11
233.525005
 21
35.615890
 73
     0
  0
TEXT
  8
TEXT
 62
     3
 10
232.775005
 20
39.865889
 40
2.000000
  1
 
 50
0.000000
 41
0.452442
 51
0.000000
  7
STANDARD
 72
     5
 11
233.525005
 21
39.865889
 73
     0
  0
TEXT
  8
TEXT
 62
     3
 10
237.337505
 20
14.615890
 40
2.000000
  1
                         
 50
0.000000
 41
0.566327
 51
0.000000
  7
STANDARD
 72
     5
 11
265.087505
 21
14.615890
 73
     0
  0
TEXT
  8
TEXT
 62
     3
 10
237.337505
 20
18.865890
 40
2.000000
  1
                         
 50
0.000000
 41
0.566327
 51
0.000000
  7
STANDARD
 72
     5
 11
265.087505
 21
18.865890
 73
     0
  0
TEXT
  8
TEXT
 62
     3
 10
237.337505
 20
22.990890
 40
2.000000
  1
                         
 50
0.000000
 41
0.566327
 51
0.000000
  7
STANDARD
 72
     5
 11
265.087505
 21
22.990890
 73
     0
  0
TEXT
  8
TEXT
 62
     3
 10
237.337505
 20
27.115890
 40
2.000000
  1
                         
 50
0.000000
 41
0.566327
 51
0.000000
  7
STANDARD
 72
     5
 11
265.087505
 21
27.115890
 73
     0
  0
TEXT
  8
TEXT
 62
     3
 10
237.337505
 20
31.365890
 40
2.000000
  1
                         
 50
0.000000
 41
0.566327
 51
0.000000
  7
STANDARD
 72
     5
 11
265.087505
 21
31.365890
 73
     0
  0
TEXT
  8
TEXT
 62
     3
 10
237.337505
 20
35.615890
 40
2.000000
  1
                         
 50
0.000000
 41
0.566327
 51
0.000000
  7
STANDARD
 72
     5
 11
265.087505
 21
35.615890
 73
     0
  0
TEXT
  8
TEXT
 62
     3
 10
237.337505
 20
39.865889
 40
2.000000
  1
                         
 50
0.000000
 41
0.566327
 51
0.000000
  7
STANDARD
 72
     5
 11
265.087505
 21
39.865889
 73
     0
  0
TEXT
  8
TEXT
 62
     3
 10
265.837505
 20
14.615890
 40
2.000000
  1
           
 50
0.000000
 41
0.571429
 51
0.000000
  7
STANDARD
 72
     5
 11
277.837505
 21
14.615890
 73
     0
  0
TEXT
  8
TEXT
 62
     3
 10
265.837505
 20
18.865890
 40
2.000000
  1
           
 50
0.000000
 41
0.571429
 51
0.000000
  7
STANDARD
 72
     5
 11
277.837505
 21
18.865890
 73
     0
  0
TEXT
  8
TEXT
 62
     3
 10
265.837505
 20
22.990890
 40
2.000000
  1
           
 50
0.000000
 41
0.571429
 51
0.000000
  7
STANDARD
 72
     5
 11
277.837505
 21
22.990890
 73
     0
  0
TEXT
  8
TEXT
 62
     3
 10
265.837505
 20
27.115890
 40
2.000000
  1
           
 50
0.000000
 41
0.571429
 51
0.000000
  7
STANDARD
 72
     5
 11
277.837505
 21
27.115890
 73
     0
  0
TEXT
  8
TEXT
 62
     3
 10
265.837505
 20
31.365890
 40
2.000000
  1
           
 50
0.000000
 41
0.571429
 51
0.000000
  7
STANDARD
 72
     5
 11
277.837505
 21
31.365890
 73
     0
  0
TEXT
  8
TEXT
 62
     3
 10
265.837505
 20
35.615890
 40
2.000000
  1
           
 50
0.000000
 41
0.571429
 51
0.000000
  7
STANDARD
 72
     5
 11
277.837505
 21
35.615890
 73
     0
  0
TEXT
  8
TEXT
 62
     3
 10
265.837505
 20
39.865889
 40
2.000000
  1
           
 50
0.000000
 41
0.571429
 51
0.000000
  7
STANDARD
 72
     5
 11
277.837505
 21
39.865889
 73
     0
  0
TEXT
  8
TEXT
 62
     3
 10
278.837505
 20
14.615890
 40
2.000000
  1
     
 50
0.000000
 41
0.583333
 51
0.000000
  7
STANDARD
 72
     5
 11
284.087505
 21
14.615890
 73
     0
  0
TEXT
  8
TEXT
 62
     3
 10
278.837505
 20
18.865890
 40
2.000000
  1
     
 50
0.000000
 41
0.583333
 51
0.000000
  7
STANDARD
 72
     5
 11
284.087505
 21
18.865890
 73
     0
  0
TEXT
  8
TEXT
 62
     3
 10
278.837505
 20
22.990890
 40
2.000000
  1
     
 50
0.000000
 41
0.583333
 51
0.000000
  7
STANDARD
 72
     5
 11
284.087505
 21
22.990890
 73
     0
  0
TEXT
  8
TEXT
 62
     3
 10
278.837505
 20
27.115890
 40
2.000000
  1
     
 50
0.000000
 41
0.583333
 51
0.000000
  7
STANDARD
 72
     5
 11
284.087505
 21
27.115890
 73
     0
  0
TEXT
  8
TEXT
 62
     3
 10
278.837505
 20
31.365890
 40
2.000000
  1
     
 50
0.000000
 41
0.583333
 51
0.000000
  7
STANDARD
 72
     5
 11
284.087505
 21
31.365890
 73
     0
  0
TEXT
  8
TEXT
 62
     3
 10
278.837505
 20
35.615890
 40
2.000000
  1
     
 50
0.000000
 41
0.583333
 51
0.000000
  7
STANDARD
 72
     5
 11
284.087505
 21
35.615890
 73
     0
  0
TEXT
  8
TEXT
 62
     3
 10
278.837505
 20
39.865889
 40
2.000000
  1
     
 50
0.000000
 41
0.583333
 51
0.000000
  7
STANDARD
 72
     5
 11
284.087505
 21
39.865889
 73
     0
  0
TEXT
  8
TEXT
 62
     7
 10
347.450013
 20
34.499997
 40
4.500000
  1
Einbausituation
 50
0.000000
 41
0.873016
 51
0.000000
  7
STANDARD
 72
     5
 11
395.850013
 21
34.499997
 73
     0
  0
TEXT
  8
TEXT
 62
     7
 10
342.500013
 20
25.999997
 40
4.500000
  1
JANSEN JANISOL T30
 50
0.000000
 41
0.754546
 51
0.000000
  7
STANDARD
 72
     5
 11
400.800013
 21
25.999997
 73
     0
  0
TEXT
  8
TEXT
 62
     3
 10
295.837503
 20
31.374997
 40
2.000000
  1
E    
 50
0.000000
 41
0.583333
 51
0.000000
  7
STANDARD
 72
     5
 11
301.087503
 21
31.374997
 73
     0
  0
TEXT
  8
TEXT
 62
     3
 10
311.837504
 20
31.374997
 40
2.000000
  1
 
 50
0.000000
 41
0.452442
 51
0.000000
  7
STANDARD
 72
     5
 11
312.587504
 21
31.374997
 73
     0
  0
ENDBLK
  8
0
  0
BLOCK
  8
KST
  2
B-16
 70
    66
 10
0.000000
 20
0.000000
 30
0.000000
  0
LINE
  8
KST
  6
CONTINUOUS
 62
     7
 10
126.698167
 20
47.606674
 11
153.998392
 21
47.606813
  0
LINE
  8
KST
  6
CONTINUOUS
 62
     7
 10
153.998388
 20
69.506490
 11
153.998392
 21
47.606813
  0
ARC
  8
KST
  6
CONTINUOUS
 62
     7
 10
154.998405
 20
69.506509
 40
1.000000
 50
90.001016
 51
180.001084
  0
LINE
  8
KST
  6
CONTINUOUS
 62
     7
 10
153.348175
 20
72.106490
 11
152.848166
 21
72.606499
  0
LINE
  8
KST
  6
CONTINUOUS
 62
     7
 10
152.848166
 20
72.606499
 11
140.548168
 21
72.606499
  0
LINE
  8
KST
  6
CONTINUOUS
 62
     7
 10
140.548168
 20
72.606499
 11
140.048159
 21
72.106490
  0
LINE
  8
KST
  6
CONTINUOUS
 62
     7
 10
133.348185
 20
72.106490
 11
132.848176
 21
72.606499
  0
LINE
  8
KST
  6
CONTINUOUS
 62
     7
 10
132.848176
 20
72.606499
 11
126.698169
 21
72.606499
  0
LINE
  8
KST
  6
BORDER
 62
     3
 10
138.498185
 20
70.671051
 11
138.498185
 21
45.228276
  0
LINE
  8
KST
  6
CONTINUOUS
 62
     7
 10
152.798327
 20
47.606546
 11
152.798326
 21
46.906468
  0
ARC
  8
KST
  6
CONTINUOUS
 62
     7
 10
152.598327
 20
46.906467
 40
0.200000
 50
269.999807
 51
0.000356
  0
LINE
  8
KST
  6
CONTINUOUS
 62
     7
 10
135.698187
 20
46.706468
 11
140.953698
 21
46.706468
  0
LINE
  8
KST
  6
BORDER
 62
     3
 10
146.698143
 20
75.547538
 11
146.698175
 21
45.569674
  0
LINE
  8
KST
  6
CONTINUOUS
 62
     7
 10
135.848181
 20
46.706468
 11
135.848182
 21
46.406481
  0
LINE
  8
KST
  6
CONTINUOUS
 62
     7
 10
136.148182
 20
46.106481
 11
140.503694
 21
46.106482
  0
ARC
  8
KST
  6
CONTINUOUS
 62
     7
 10
136.148185
 20
46.406476
 40
0.300000
 50
179.999013
 51
269.999512
  0
LINE
  8
KST
  6
CONTINUOUS
 62
     7
 10
140.803694
 20
46.406482
 11
140.803693
 21
46.706468
  0
ARC
  8
KST
  6
CONTINUOUS
 62
     7
 10
140.503698
 20
46.406478
 40
0.300000
 50
269.999321
 51
0.000846
  0
LINE
  8
KST
  6
CONTINUOUS
 62
     7
 10
126.698169
 20
46.706464
 11
135.698185
 21
46.706467
  0
LINE
  8
KST
  6
CONTINUOUS
 62
     7
 10
140.953697
 20
46.706467
 11
152.598326
 21
46.706468
  0
LINE
  8
KST
  6
CONTINUOUS
 62
     7
 10
156.898391
 20
56.806514
 11
156.898389
 21
52.577873
  0
ARC
  8
KST
  6
CONTINUOUS
 62
     7
 10
158.898392
 20
56.806510
 40
2.000000
 50
90.000035
 51
179.999891
  0
ARC
  8
KST
  6
CONTINUOUS
 62
     7
 10
151.898390
 20
52.577873
 40
5.000000
 50
315.000005
 51
0.000001
  0
LINE
  8
KST
  6
CONTINUOUS
 62
     7
 10
187.698082
 20
68.806490
 11
187.698077
 21
70.506486
  0
LINE
  8
KST
  6
CONTINUOUS
 62
     7
 10
188.098079
 20
70.906488
 11
192.798076
 21
70.906490
  0
ARC
  8
KST
  6
CONTINUOUS
 62
     7
 10
188.098094
 20
70.506509
 40
0.400000
 50
90.002205
 51
180.003282
  0
LINE
  8
KST
  6
CONTINUOUS
 62
     7
 10
192.798076
 20
70.906490
 11
192.798076
 21
71.106488
  0
LINE
  8
KST
  6
CONTINUOUS
 62
     7
 10
192.798076
 20
71.106488
 11
191.066023
 21
72.106490
  0
LINE
  8
KST
  6
BORDER
 62
     3
 10
181.698174
 20
67.198961
 11
181.698174
 21
73.106489
  0
LINE
  8
KST
  6
BORDER
 62
     3
 10
180.198178
 20
73.106489
 11
180.198178
 21
67.198961
  0
LINE
  8
KST
  6
BORDER
 62
     3
 10
178.698174
 20
67.198961
 11
178.698174
 21
73.106489
  0
LINE
  8
KST
  6
DOT
 62
     1
 10
168.348175
 20
71.206489
 11
168.348175
 21
69.006489
  0
LINE
  8
KST
  6
DOT
 62
     1
 10
168.348175
 20
69.006489
 11
165.048175
 21
69.006489
  0
LINE
  8
KST
  6
DOT
 62
     1
 10
165.048175
 20
69.006489
 11
165.048175
 21
71.206489
  0
LINE
  8
KST
  6
DOT
 62
     1
 10
173.348173
 20
71.206489
 11
173.348173
 21
69.006489
  0
LINE
  8
KST
  6
DOT
 62
     1
 10
173.348173
 20
69.006489
 11
171.848173
 21
69.006489
  0
LINE
  8
KST
  6
DOT
 62
     1
 10
171.848173
 20
69.006489
 11
171.848173
 21
71.206489
  0
LINE
  8
KST
  6
DOT
 62
     1
 10
173.048176
 20
70.906488
 11
173.048173
 21
69.006488
  0
LINE
  8
KST
  6
DOT
 62
     1
 10
172.148173
 20
69.006489
 11
172.148176
 21
70.906486
  0
LINE
  8
KST
  6
DOT
 62
     1
 10
180.148175
 20
71.206488
 11
180.148175
 21
69.006488
  0
LINE
  8
KST
  6
DOT
 62
     1
 10
180.148175
 20
69.006488
 11
176.848175
 21
69.006488
  0
LINE
  8
KST
  6
DOT
 62
     1
 10
176.848175
 20
69.006488
 11
176.848175
 21
71.206488
  0
LINE
  8
KST
  6
CONTINUOUS
 62
     7
 10
172.598175
 20
72.106489
 11
172.598175
 21
72.906544
  0
LINE
  8
KST
  6
CONTINUOUS
 62
     7
 10
168.098175
 20
72.106489
 11
168.098175
 21
72.906539
  0
ARC
  8
KST
  6
CONTINUOUS
 62
     7
 10
168.298176
 20
72.906542
 40
0.200000
 50
90.000302
 51
180.000872
  0
LINE
  8
KST
  6
CONTINUOUS
 62
     7
 10
168.298175
 20
73.106539
 11
172.398175
 21
73.106544
  0
ARC
  8
KST
  6
CONTINUOUS
 62
     7
 10
172.398176
 20
72.906547
 40
0.200000
 50
359.999245
 51
90.000302
  0
LINE
  8
KST
  6
DOT
 62
     1
 10
173.348174
 20
71.206488
 11
173.048176
 21
70.906488
  0
LINE
  8
KST
  6
DOT
 62
     1
 10
172.148176
 20
70.906486
 11
171.848174
 21
71.206488
  0
LINE
  8
KST
  6
CONTINUOUS
 62
     7
 10
158.898391
 20
58.806513
 11
173.498148
 21
58.806516
  0
LINE
  8
KST
  6
CONTINUOUS
 62
     7
 10
191.066023
 20
72.106490
 11
126.698168
 21
72.106490
  0
LINE
  8
KST
  6
CONTINUOUS
 62
     7
 10
126.698168
 20
71.106488
 11
192.798076
 21
71.106488
  0
LINE
  8
KST
  6
CONTINUOUS
 62
     7
 10
154.998387
 20
70.506489
 11
187.698077
 21
70.506489
  0
LINE
  8
KST
  6
CONTINUOUS
 62
     7
 10
154.988923
 20
70.506463
 11
126.698168
 21
70.506449
  0
LINE
  8
KST
  6
CONTINUOUS
 62
     7
 10
155.433922
 20
49.042342
 11
153.998392
 21
47.606812
  0
LINE
  8
KST
  6
CONTINUOUS
 62
     7
 10
156.898392
 20
52.577875
 11
156.898417
 21
47.606827
  0
LINE
  8
KST
  6
CONTINUOUS
 62
     7
 10
153.998392
 20
47.606812
 11
156.898417
 21
47.606827
  0
LINE
  8
KST
  6
CONTINUOUS
 62
     7
 10
173.498148
 20
58.806516
 11
173.498148
 21
68.806490
  0
LINE
  8
KST
  6
CONTINUOUS
 62
     7
 10
173.498148
 20
68.806490
 11
187.698082
 21
68.806490
  0
LINE
  8
KST
  6
BORDER
 62
     3
 10
126.698170
 20
79.049135
 11
126.698170
 21
43.785761
  0
LINE
  8
KST
  6
CONTINUOUS
 62
     7
 10
126.698171
 20
47.606674
 11
99.397946
 21
47.606813
  0
LINE
  8
KST
  6
CONTINUOUS
 62
     7
 10
99.397950
 20
69.506490
 11
99.397946
 21
47.606813
  0
ARC
  8
KST
  6
CONTINUOUS
 62
     7
 10
98.397933
 20
69.506509
 40
1.000000
 50
359.998916
 51
89.998984
  0
LINE
  8
KST
  6
CONTINUOUS
 62
     7
 10
100.048163
 20
72.106490
 11
100.548172
 21
72.606499
  0
LINE
  8
KST
  6
CONTINUOUS
 62
     7
 10
100.548172
 20
72.606499
 11
112.848170
 21
72.606499
  0
LINE
  8
KST
  6
CONTINUOUS
 62
     7
 10
112.848170
 20
72.606499
 11
113.348179
 21
72.106490
  0
LINE
  8
KST
  6
CONTINUOUS
 62
     7
 10
120.048153
 20
72.106490
 11
120.548162
 21
72.606499
  0
LINE
  8
KST
  6
CONTINUOUS
 62
     7
 10
120.548162
 20
72.606499
 11
126.698169
 21
72.606499
  0
LINE
  8
KST
  6
BORDER
 62
     3
 10
114.898153
 20
70.671051
 11
114.898153
 21
45.228276
  0
LINE
  8
KST
  6
CONTINUOUS
 62
     7
 10
100.598011
 20
47.606546
 11
100.598012
 21
46.906468
  0
ARC
  8
KST
  6
CONTINUOUS
 62
     7
 10
100.798011
 20
46.906467
 40
0.200000
 50
179.999644
 51
270.000193
  0
LINE
  8
KST
  6
CONTINUOUS
 62
     7
 10
117.698151
 20
46.706468
 11
112.442640
 21
46.706468
  0
LINE
  8
KST
  6
BORDER
 62
     3
 10
106.698195
 20
75.547538
 11
106.698163
 21
45.569674
  0
LINE
  8
KST
  6
CONTINUOUS
 62
     7
 10
117.548157
 20
46.706468
 11
117.548156
 21
46.406481
  0
LINE
  8
KST
  6
CONTINUOUS
 62
     7
 10
117.248156
 20
46.106481
 11
112.892644
 21
46.106482
  0
ARC
  8
KST
  6
CONTINUOUS
 62
     7
 10
117.248153
 20
46.406476
 40
0.300000
 50
270.000488
 51
0.000987
  0
LINE
  8
KST
  6
CONTINUOUS
 62
     7
 10
112.592644
 20
46.406482
 11
112.592645
 21
46.706468
  0
ARC
  8
KST
  6
CONTINUOUS
 62
     7
 10
112.892640
 20
46.406478
 40
0.300000
 50
179.999154
 51
270.000679
  0
LINE
  8
KST
  6
CONTINUOUS
 62
     7
 10
126.698169
 20
46.706464
 11
117.698153
 21
46.706467
  0
LINE
  8
KST
  6
CONTINUOUS
 62
     7
 10
112.442641
 20
46.706467
 11
100.798012
 21
46.706468
  0
LINE
  8
KST
  6
CONTINUOUS
 62
     7
 10
96.497947
 20
56.806514
 11
96.497949
 21
52.577873
  0
ARC
  8
KST
  6
CONTINUOUS
 62
     7
 10
94.497946
 20
56.806510
 40
2.000000
 50
0.000109
 51
89.999965
  0
ARC
  8
KST
  6
CONTINUOUS
 62
     7
 10
101.497948
 20
52.577873
 40
5.000000
 50
179.999999
 51
224.999995
  0
LINE
  8
KST
  6
CONTINUOUS
 62
     7
 10
65.698256
 20
68.806490
 11
65.698261
 21
70.506486
  0
LINE
  8
KST
  6
CONTINUOUS
 62
     7
 10
65.298259
 20
70.906488
 11
60.598262
 21
70.906490
  0
ARC
  8
KST
  6
CONTINUOUS
 62
     7
 10
65.298244
 20
70.506509
 40
0.400000
 50
359.996718
 51
89.997795
  0
LINE
  8
KST
  6
CONTINUOUS
 62
     7
 10
60.598262
 20
70.906490
 11
60.598262
 21
71.106488
  0
LINE
  8
KST
  6
CONTINUOUS
 62
     7
 10
60.598262
 20
71.106488
 11
62.330315
 21
72.106490
  0
LINE
  8
KST
  6
BORDER
 62
     3
 10
71.698164
 20
67.198961
 11
71.698164
 21
73.106489
  0
LINE
  8
KST
  6
BORDER
 62
     3
 10
73.198160
 20
73.106489
 11
73.198160
 21
67.198961
  0
LINE
  8
KST
  6
BORDER
 62
     3
 10
74.698164
 20
67.198961
 11
74.698164
 21
73.106489
  0
LINE
  8
KST
  6
DOT
 62
     1
 10
85.048163
 20
71.206489
 11
85.048163
 21
69.006489
  0
LINE
  8
KST
  6
DOT
 62
     1
 10
85.048163
 20
69.006489
 11
88.348163
 21
69.006489
  0
LINE
  8
KST
  6
DOT
 62
     1
 10
88.348163
 20
69.006489
 11
88.348163
 21
71.206489
  0
LINE
  8
KST
  6
DOT
 62
     1
 10
80.048165
 20
71.206489
 11
80.048165
 21
69.006489
  0
LINE
  8
KST
  6
DOT
 62
     1
 10
80.048165
 20
69.006489
 11
81.548165
 21
69.006489
  0
LINE
  8
KST
  6
DOT
 62
     1
 10
81.548165
 20
69.006489
 11
81.548165
 21
71.206489
  0
LINE
  8
KST
  6
DOT
 62
     1
 10
80.348162
 20
70.906488
 11
80.348165
 21
69.006488
  0
LINE
  8
KST
  6
DOT
 62
     1
 10
81.248165
 20
69.006489
 11
81.248162
 21
70.906486
  0
LINE
  8
KST
  6
DOT
 62
     1
 10
73.248163
 20
71.206488
 11
73.248163
 21
69.006488
  0
LINE
  8
KST
  6
DOT
 62
     1
 10
73.248163
 20
69.006488
 11
76.548163
 21
69.006488
  0
LINE
  8
KST
  6
DOT
 62
     1
 10
76.548163
 20
69.006488
 11
76.548163
 21
71.206488
  0
LINE
  8
KST
  6
CONTINUOUS
 62
     7
 10
80.798163
 20
72.106489
 11
80.798163
 21
72.906544
  0
LINE
  8
KST
  6
CONTINUOUS
 62
     7
 10
85.298163
 20
72.106489
 11
85.298163
 21
72.906539
  0
ARC
  8
KST
  6
CONTINUOUS
 62
     7
 10
85.098162
 20
72.906542
 40
0.200000
 50
359.999128
 51
89.999698
  0
LINE
  8
KST
  6
CONTINUOUS
 62
     7
 10
85.098163
 20
73.106539
 11
80.998163
 21
73.106544
  0
ARC
  8
KST
  6
CONTINUOUS
 62
     7
 10
80.998162
 20
72.906547
 40
0.200000
 50
89.999698
 51
180.000755
  0
LINE
  8
KST
  6
DOT
 62
     1
 10
80.048164
 20
71.206488
 11
80.348162
 21
70.906488
  0
LINE
  8
KST
  6
DOT
 62
     1
 10
81.248162
 20
70.906486
 11
81.548164
 21
71.206488
  0
LINE
  8
KST
  6
CONTINUOUS
 62
     7
 10
94.497947
 20
58.806513
 11
79.898190
 21
58.806516
  0
LINE
  8
KST
  6
CONTINUOUS
 62
     7
 10
62.330315
 20
72.106490
 11
126.698170
 21
72.106490
  0
LINE
  8
KST
  6
CONTINUOUS
 62
     7
 10
126.698170
 20
71.106488
 11
60.598262
 21
71.106488
  0
LINE
  8
KST
  6
CONTINUOUS
 62
     7
 10
98.397951
 20
70.506489
 11
65.698261
 21
70.506489
  0
LINE
  8
KST
  6
CONTINUOUS
 62
     7
 10
98.407415
 20
70.506463
 11
126.698170
 21
70.506449
  0
LINE
  8
KST
  6
CONTINUOUS
 62
     7
 10
97.962416
 20
49.042342
 11
99.397946
 21
47.606812
  0
LINE
  8
KST
  6
CONTINUOUS
 62
     7
 10
96.497946
 20
52.577875
 11
96.497921
 21
47.606827
  0
LINE
  8
KST
  6
CONTINUOUS
 62
     7
 10
99.397946
 20
47.606812
 11
96.497921
 21
47.606827
  0
LINE
  8
KST
  6
CONTINUOUS
 62
     7
 10
79.898190
 20
58.806516
 11
79.898190
 21
68.806490
  0
LINE
  8
KST
  6
CONTINUOUS
 62
     7
 10
79.898190
 20
68.806490
 11
65.698256
 21
68.806490
  0
ENDBLK
  8
0
  0
BLOCK
  8
C
  2
B-17
 70
    66
 10
0.000000
 20
0.000000
 30
0.000000
  0
LINE
  8
C
  6
CONTINUOUS
 62
     7
 10
36.698134
 20
68.006495
 11
36.698135
 21
70.506489
  0
LINE
  8
C
  6
CONTINUOUS
 62
     7
 10
36.698135
 20
70.506489
 11
65.398282
 21
70.506489
  0
LINE
  8
C
  6
CONTINUOUS
 62
     7
 10
102.173224
 20
70.506489
 11
102.298176
 21
70.506488
  0
LINE
  8
C
  6
CONTINUOUS
 62
     7
 10
187.998075
 20
70.506488
 11
216.698143
 21
70.506488
  0
LINE
  8
C
  6
CONTINUOUS
 62
     7
 10
216.698143
 20
70.506488
 11
216.698143
 21
68.006494
  0
LINE
  8
C
  6
CONTINUOUS
 62
     7
 10
216.698143
 20
68.006494
 11
181.998118
 21
68.006488
  0
LINE
  8
C
  6
CONTINUOUS
 62
     7
 10
177.998121
 20
68.006489
 11
173.498120
 21
68.006491
  0
LINE
  8
C
  6
CONTINUOUS
 62
     7
 10
102.298176
 20
68.006490
 11
102.173225
 21
68.006492
  0
LINE
  8
C
  6
CONTINUOUS
 62
     7
 10
79.898258
 20
68.006492
 11
36.698134
 21
68.006495
  0
LINE
  8
C
  6
CONTINUOUS
 62
     7
 10
65.398282
 20
68.006495
 11
65.398283
 21
70.506489
  0
LINE
  8
C
  6
CONTINUOUS
 62
     7
 10
187.998075
 20
68.006494
 11
187.998075
 21
70.506488
  0
LINE
  8
C
  6
CONTINUOUS
 62
     7
 10
208.798142
 20
70.506488
 11
207.198142
 21
68.906490
  0
LINE
  8
C
  6
CONTINUOUS
 62
     7
 10
207.198142
 20
68.906490
 11
207.198142
 21
68.006494
  0
LINE
  8
C
  6
CONTINUOUS
 62
     7
 10
202.198142
 20
68.006494
 11
202.198142
 21
68.906490
  0
LINE
  8
C
  6
CONTINUOUS
 62
     7
 10
202.198142
 20
68.906490
 11
207.198142
 21
68.906490
  0
LINE
  8
C
  6
CONTINUOUS
 62
     7
 10
202.198142
 20
68.906490
 11
200.598142
 21
70.506488
  0
LINE
  8
C
  6
BORDER
 62
     3
 10
204.698142
 20
72.506488
 11
204.698142
 21
66.006494
  0
LINE
  8
C
  6
CONTINUOUS
 62
     7
 10
52.798135
 20
70.506489
 11
51.198135
 21
68.906491
  0
LINE
  8
C
  6
CONTINUOUS
 62
     7
 10
51.198135
 20
68.906491
 11
51.198134
 21
68.006495
  0
LINE
  8
C
  6
CONTINUOUS
 62
     7
 10
46.198134
 20
68.006495
 11
46.198135
 21
68.906491
  0
LINE
  8
C
  6
CONTINUOUS
 62
     7
 10
46.198135
 20
68.906491
 11
51.198135
 21
68.906491
  0
LINE
  8
C
  6
CONTINUOUS
 62
     7
 10
46.198135
 20
68.906491
 11
44.598135
 21
70.506489
  0
LINE
  8
C
  6
BORDER
 62
     3
 10
48.698135
 20
72.506489
 11
48.698134
 21
66.006495
  0
LINE
  8
HATCH
  6
CONTINUOUS
 62
     3
 10
215.957812
 20
68.006494
 11
216.698143
 21
68.746825
  0
LINE
  8
HATCH
  6
CONTINUOUS
 62
     3
 10
213.129385
 20
68.006494
 11
215.629379
 21
70.506488
  0
LINE
  8
HATCH
  6
CONTINUOUS
 62
     3
 10
210.300958
 20
68.006494
 11
212.800952
 21
70.506488
  0
LINE
  8
HATCH
  6
CONTINUOUS
 62
     3
 10
207.472530
 20
68.006494
 11
209.972525
 21
70.506488
  0
LINE
  8
HATCH
  6
CONTINUOUS
 62
     3
 10
201.815675
 20
68.006494
 11
202.198142
 21
68.388961
  0
LINE
  8
HATCH
  6
CONTINUOUS
 62
     3
 10
198.987248
 20
68.006494
 11
201.042692
 21
70.061938
  0
LINE
  8
HATCH
  6
CONTINUOUS
 62
     3
 10
196.158821
 20
68.006494
 11
198.658815
 21
70.506488
  0
LINE
  8
HATCH
  6
CONTINUOUS
 62
     3
 10
193.330394
 20
68.006494
 11
195.830388
 21
70.506488
  0
LINE
  8
HATCH
  6
CONTINUOUS
 62
     3
 10
190.501967
 20
68.006494
 11
193.001961
 21
70.506488
  0
LINE
  8
HATCH
  6
CONTINUOUS
 62
     3
 10
187.998075
 20
68.331029
 11
190.173534
 21
70.506488
  0
LINE
  8
HATCH
  6
CONTINUOUS
 62
     3
 10
63.222745
 20
68.006495
 11
65.398283
 21
70.182034
  0
LINE
  8
HATCH
  6
CONTINUOUS
 62
     3
 10
60.394318
 20
68.006495
 11
62.894312
 21
70.506490
  0
LINE
  8
HATCH
  6
CONTINUOUS
 62
     3
 10
57.565890
 20
68.006495
 11
60.065885
 21
70.506490
  0
LINE
  8
HATCH
  6
CONTINUOUS
 62
     3
 10
54.737463
 20
68.006495
 11
57.237457
 21
70.506489
  0
LINE
  8
HATCH
  6
CONTINUOUS
 62
     3
 10
51.909035
 20
68.006495
 11
54.409030
 21
70.506489
  0
LINE
  8
HATCH
  6
CONTINUOUS
 62
     3
 10
43.423754
 20
68.006495
 11
45.260942
 21
69.843683
  0
LINE
  8
HATCH
  6
CONTINUOUS
 62
     3
 10
40.595327
 20
68.006495
 11
43.095321
 21
70.506489
  0
LINE
  8
HATCH
  6
CONTINUOUS
 62
     3
 10
37.766900
 20
68.006495
 11
40.266894
 21
70.506489
  0
LINE
  8
HATCH
  6
CONTINUOUS
 62
     3
 10
36.698134
 20
69.766156
 11
37.438467
 21
70.506489
  0
LINE
  8
DIMENSION
  6
CONTINUOUS
 62
     3
 10
270.399200
 20
122.432125
 11
215.842824
 21
71.413144
  0
ENDBLK
  8
0
  0
BLOCK
  8
KST
  2
B-18
 70
    66
 10
0.000000
 20
0.000000
 30
0.000000
  0
LINE
  8
KST
  6
CONTINUOUS
 62
     7
 10
122.298203
 20
80.035234
 11
122.298205
 21
72.606499
  0
ARC
  8
KST
  6
CONTINUOUS
 62
     7
 10
123.298200
 20
80.035239
 40
1.000000
 50
119.999953
 51
180.000274
  0
LINE
  8
KST
  6
CONTINUOUS
 62
     7
 10
131.098109
 20
72.606499
 11
131.098105
 21
80.035225
  0
ARC
  8
KST
  6
CONTINUOUS
 62
     7
 10
130.098109
 20
80.035228
 40
1.000000
 50
359.999808
 51
60.000077
  0
LINE
  8
KST
  6
CONTINUOUS
 62
     7
 10
124.498173
 20
81.882738
 11
124.498176
 21
83.386689
  0
ARC
  8
KST
  6
CONTINUOUS
 62
     7
 10
124.998166
 20
83.386697
 40
0.500000
 50
105.465554
 51
180.000961
  0
ARC
  8
KST
  6
CONTINUOUS
 62
     7
 10
126.698170
 20
76.081493
 40
8.000000
 50
76.752087
 51
103.248338
  0
ARC
  8
KST
  6
CONTINUOUS
 62
     7
 10
128.398164
 20
83.386700
 40
0.500000
 50
359.999051
 51
74.534540
  0
LINE
  8
KST
  6
CONTINUOUS
 62
     7
 10
128.898154
 20
83.386692
 11
128.898151
 21
81.882719
  0
LINE
  8
KST
  6
CONTINUOUS
 62
     7
 10
128.898151
 20
81.882719
 11
130.598105
 21
80.901250
  0
LINE
  8
KST
  6
CONTINUOUS
 62
     7
 10
122.798203
 20
80.901260
 11
124.498173
 21
81.882738
  0
LINE
  8
KST
  6
CONTINUOUS
 62
     7
 10
124.498173
 20
81.882739
 11
128.898152
 21
81.882720
  0
ENDBLK
  8
0
  0
BLOCK
  8
KST
  2
B-20
 70
    66
 10
0.000000
 20
0.000000
 30
0.000000
  0
LINE
  8
KST
  6
CONTINUOUS
 62
     7
 10
102.298195
 20
80.035256
 11
102.298197
 21
72.606521
  0
ARC
  8
KST
  6
CONTINUOUS
 62
     7
 10
103.298191
 20
80.035260
 40
1.000000
 50
119.999889
 51
180.000236
  0
LINE
  8
KST
  6
CONTINUOUS
 62
     7
 10
111.098101
 20
72.606521
 11
111.098097
 21
80.035247
  0
ARC
  8
KST
  6
CONTINUOUS
 62
     7
 10
110.098100
 20
80.035250
 40
1.000000
 50
359.999846
 51
60.000051
  0
LINE
  8
KST
  6
CONTINUOUS
 62
     7
 10
104.498165
 20
81.882760
 11
104.498168
 21
83.386711
  0
ARC
  8
KST
  6
CONTINUOUS
 62
     7
 10
104.998157
 20
83.386719
 40
0.500000
 50
105.465434
 51
180.000886
  0
ARC
  8
KST
  6
CONTINUOUS
 62
     7
 10
106.698161
 20
76.081515
 40
8.000000
 50
76.752082
 51
103.248331
  0
ARC
  8
KST
  6
CONTINUOUS
 62
     7
 10
108.398155
 20
83.386722
 40
0.500000
 50
359.999126
 51
74.534460
  0
LINE
  8
KST
  6
CONTINUOUS
 62
     7
 10
108.898146
 20
83.386714
 11
108.898143
 21
81.882741
  0
LINE
  8
KST
  6
CONTINUOUS
 62
     7
 10
108.898143
 20
81.882741
 11
110.598097
 21
80.901272
  0
LINE
  8
KST
  6
CONTINUOUS
 62
     7
 10
102.798195
 20
80.901282
 11
104.498165
 21
81.882760
  0
LINE
  8
KST
  6
CONTINUOUS
 62
     7
 10
104.498165
 20
81.882761
 11
108.898144
 21
81.882742
  0
ENDBLK
  8
0
  0
BLOCK
  8
KST
  2
B-21
 70
    66
 10
0.000000
 20
0.000000
 30
0.000000
  0
LINE
  8
KST
  6
CONTINUOUS
 62
     7
 10
142.298210
 20
80.035299
 11
142.298212
 21
72.606564
  0
ARC
  8
KST
  6
CONTINUOUS
 62
     7
 10
143.298207
 20
80.035303
 40
1.000000
 50
119.999921
 51
180.000219
  0
LINE
  8
KST
  6
CONTINUOUS
 62
     7
 10
151.098116
 20
72.606564
 11
151.098112
 21
80.035290
  0
ARC
  8
KST
  6
CONTINUOUS
 62
     7
 10
150.098116
 20
80.035292
 40
1.000000
 50
359.999863
 51
60.000100
  0
LINE
  8
KST
  6
CONTINUOUS
 62
     7
 10
144.498180
 20
81.882803
 11
144.498183
 21
83.386754
  0
ARC
  8
KST
  6
CONTINUOUS
 62
     7
 10
144.998173
 20
83.386761
 40
0.500000
 50
105.465514
 51
180.000851
  0
ARC
  8
KST
  6
CONTINUOUS
 62
     7
 10
146.698177
 20
76.081557
 40
8.000000
 50
76.752088
 51
103.248336
  0
ARC
  8
KST
  6
CONTINUOUS
 62
     7
 10
148.398171
 20
83.386764
 40
0.500000
 50
359.999161
 51
74.534558
  0
LINE
  8
KST
  6
CONTINUOUS
 62
     7
 10
148.898161
 20
83.386757
 11
148.898158
 21
81.882784
  0
LINE
  8
KST
  6
CONTINUOUS
 62
     7
 10
148.898158
 20
81.882784
 11
150.598112
 21
80.901315
  0
LINE
  8
KST
  6
CONTINUOUS
 62
     7
 10
142.798210
 20
80.901325
 11
144.498180
 21
81.882803
  0
LINE
  8
KST
  6
CONTINUOUS
 62
     7
 10
144.498180
 20
81.882804
 11
148.898159
 21
81.882785
  0
ENDBLK
  8
0
  0
ENDSEC
  0
SECTION
  2
ENTITIES
  0
DIMENSION
  8
DIMENSION
 62
     3
  2
*D0
  3
CAD400-DIM0
 10
105.291557
 20
200.500000
 30
0.000000
 11
119.700000
 21
204.000000
 31
0.000000
 70
   128
 13
105.291557
 23
194.501175
 33
0.000000
 14
106.291557
 24
194.501175
 34
0.000000
 50
0.000000
  0
DIMENSION
  8
DIMENSION
 62
     3
  2
*D1
  3
CAD400-DIM0
 10
131.700000
 20
180.501174
 30
0.000000
 11
128.200000
 21
204.500000
 31
0.000000
 70
   128
 13
106.291557
 23
180.501174
 33
0.000000
 14
106.291557
 24
194.501175
 34
0.000000
 50
90.000000
  0
DIMENSION
  8
DIMENSION
 62
     3
  2
*D2
  3
CAD400-DIM0
 10
92.291559
 20
228.501165
 30
0.000000
 11
97.598452
 21
232.001168
 31
0.000000
 70
   128
 13
92.291557
 23
209.001174
 33
0.000000
 14
102.291559
 24
209.001174
 34
0.000000
 50
0.000000
  0
DIMENSION
  8
DIMENSION
 62
     3
  2
*D3
  3
CAD400-DIM1
 10
323.529212
 20
228.501166
 30
0.000000
 11
318.222318
 21
232.001167
 31
0.000000
 70
   128
 13
323.529213
 23
209.001174
 33
0.000000
 14
313.529211
 24
209.001174
 34
0.000000
 50
180.000000
  0
DIMENSION
  8
DIMENSION
 62
     3
  2
*D4
  3
CAD400-DIM0
 10
323.529203
 20
118.501168
 30
0.000000
 11
336.242552
 21
122.001168
 31
0.000000
 70
   128
 13
323.529204
 23
167.501171
 33
0.000000
 14
325.029242
 24
166.001145
 34
0.000000
 50
0.000000
  0
DIMENSION
  8
DIMENSION
 62
     3
  2
*D5
  3
CAD400-DIM0
 10
338.845672
 20
200.099228
 30
0.000000
 11
335.345673
 21
182.501168
 31
0.000000
 70
   128
 13
319.978255
 23
200.099231
 33
0.000000
 14
319.978255
 24
175.099256
 34
0.000000
 50
-90.000000
  0
DIMENSION
  8
DIMENSION
 62
     3
  2
*D6
  3
CAD400-DIM2
 10
315.129215
 20
206.500000
 30
0.000000
 11
289.700000
 21
210.000000
 31
0.000000
 70
   128
 13
315.129215
 23
178.815972
 33
0.000000
 14
317.478248
 24
176.599256
 34
0.000000
 50
0.000000
  0
INSERT
  8
C
  2
MEDCLUMP_SET_210_
 10
0.000000
 20
0.000000
 30
0.000000
 41
1.000000
 42
1.000000
 43
1.000000
 50
0.000000
  0
INSERT
  8
C
  2
MEDCLUMP_SET_210_-2
 10
0.000000
 20
0.000000
 30
0.000000
 41
1.000000
 42
1.000000
 43
1.000000
 50
0.000000
  0
INSERT
  8
C
  2
MEDCLUMP_SET_723_
 10
0.000000
 20
0.000000
 30
0.000000
 41
1.000000
 42
1.000000
 43
1.000000
 50
0.000000
  0
INSERT
  8
C
  2
MEDCLUMP_SET_1446_
 10
0.000000
 20
0.000000
 30
0.000000
 41
1.000000
 42
1.000000
 43
1.000000
 50
0.000000
  0
INSERT
  8
C
  2
MEDCLUMP_SET_2140_
 10
0.000000
 20
0.000000
 30
0.000000
 41
1.000000
 42
1.000000
 43
1.000000
 50
0.000000
  0
INSERT
  8
C
  2
B
 10
0.000000
 20
0.000000
 30
0.000000
 41
1.000000
 42
1.000000
 43
1.000000
 50
0.000000
  0
INSERT
  8
C
  2
B-2
 10
0.000000
 20
0.000000
 30
0.000000
 41
1.000000
 42
1.000000
 43
1.000000
 50
0.000000
  0
INSERT
  8
C
  2
B-3
 10
0.000000
 20
0.000000
 30
0.000000
 41
1.000000
 42
1.000000
 43
1.000000
 50
0.000000
  0
INSERT
  8
C
  2
MEDCLUMP_SET_2819_
 10
0.000000
 20
0.000000
 30
0.000000
 41
1.000000
 42
1.000000
 43
1.000000
 50
0.000000
  0
INSERT
  8
C
  2
B-4
 10
0.000000
 20
0.000000
 30
0.000000
 41
1.000000
 42
1.000000
 43
1.000000
 50
0.000000
  0
INSERT
  8
C
  2
B-5
 10
0.000000
 20
0.000000
 30
0.000000
 41
1.000000
 42
1.000000
 43
1.000000
 50
0.000000
  0
INSERT
  8
C
  2
B-6
 10
0.000000
 20
0.000000
 30
0.000000
 41
1.000000
 42
1.000000
 43
1.000000
 50
0.000000
  0
INSERT
  8
C
  2
B-7
 10
0.000000
 20
0.000000
 30
0.000000
 41
1.000000
 42
1.000000
 43
1.000000
 50
0.000000
  0
INSERT
  8
C
  2
B-8
 10
0.000000
 20
0.000000
 30
0.000000
 41
1.000000
 42
1.000000
 43
1.000000
 50
0.000000
  0
INSERT
  8
C
  2
MEDCLUMP_SET_210_-3
 10
0.000000
 20
0.000000
 30
0.000000
 41
1.000000
 42
1.000000
 43
1.000000
 50
0.000000
  0
INSERT
  8
C
  2
MEDCLUMP_SET_210_-4
 10
0.000000
 20
0.000000
 30
0.000000
 41
1.000000
 42
1.000000
 43
1.000000
 50
0.000000
  0
INSERT
  8
C
  2
MEDCLUMP_SET_723_-2
 10
0.000000
 20
0.000000
 30
0.000000
 41
1.000000
 42
1.000000
 43
1.000000
 50
0.000000
  0
INSERT
  8
C
  2
MEDCLUMP_SET_1446_-2
 10
0.000000
 20
0.000000
 30
0.000000
 41
1.000000
 42
1.000000
 43
1.000000
 50
0.000000
  0
INSERT
  8
C
  2
MEDCLUMP_SET_2140_-2
 10
0.000000
 20
0.000000
 30
0.000000
 41
1.000000
 42
1.000000
 43
1.000000
 50
0.000000
  0
INSERT
  8
C
  2
B-9
 10
0.000000
 20
0.000000
 30
0.000000
 41
1.000000
 42
1.000000
 43
1.000000
 50
0.000000
  0
INSERT
  8
C
  2
MEDCLUMP_SET_2819_-2
 10
0.000000
 20
0.000000
 30
0.000000
 41
1.000000
 42
1.000000
 43
1.000000
 50
0.000000
  0
INSERT
  8
KST
  2
B-10
 10
0.000000
 20
0.000000
 30
0.000000
 41
1.000000
 42
1.000000
 43
1.000000
 50
0.000000
  0
INSERT
  8
C
  2
B-11
 10
0.000000
 20
0.000000
 30
0.000000
 41
1.000000
 42
1.000000
 43
1.000000
 50
0.000000
  0
INSERT
  8
C
  2
MEDCLUMP_SET_220_
 10
0.000000
 20
0.000000
 30
0.000000
 41
1.000000
 42
1.000000
 43
1.000000
 50
0.000000
  0
INSERT
  8
C
  2
MEDCLUMP_SET_220_-2
 10
0.000000
 20
0.000000
 30
0.000000
 41
1.000000
 42
1.000000
 43
1.000000
 50
0.000000
  0
INSERT
  8
C
  2
B-12
 10
0.000000
 20
0.000000
 30
0.000000
 41
1.000000
 42
1.000000
 43
1.000000
 50
0.000000
  0
INSERT
  8
C
  2
B-13
 10
0.000000
 20
0.000000
 30
0.000000
 41
1.000000
 42
1.000000
 43
1.000000
 50
0.000000
  0
INSERT
  8
C
  2
B-14
 10
0.000000
 20
0.000000
 30
0.000000
 41
1.000000
 42
1.000000
 43
1.000000
 50
0.000000
  0
INSERT
  8
TEXT
  2
B-15
 10
0.000000
 20
0.000000
 30
0.000000
 41
1.000000
 42
1.000000
 43
1.000000
 50
0.000000
  0
INSERT
  8
C
  2
RAHMEN
 10
0.000000
 20
0.000000
 30
0.000000
 41
1.000000
 42
1.000000
 43
1.000000
 50
0.000000
  0
INSERT
  8
C
  2
SCHRIFTF_
 10
0.000000
 20
0.000000
 30
0.000000
 41
1.000000
 42
1.000000
 43
1.000000
 50
0.000000
  0
INSERT
  8
KST
  2
B-16
 10
0.000000
 20
0.000000
 30
0.000000
 41
1.000000
 42
1.000000
 43
1.000000
 50
0.000000
  0
INSERT
  8
C
  2
B-17
 10
0.000000
 20
0.000000
 30
0.000000
 41
1.000000
 42
1.000000
 43
1.000000
 50
0.000000
  0
INSERT
  8
KST
  2
B-18
 10
0.000000
 20
0.000000
 30
0.000000
 41
1.000000
 42
1.000000
 43
1.000000
 50
0.000000
  0
INSERT
  8
KST
  2
B-20
 10
0.000000
 20
0.000000
 30
0.000000
 41
1.000000
 42
1.000000
 43
1.000000
 50
0.000000
  0
INSERT
  8
KST
  2
B-21
 10
0.000000
 20
0.000000
 30
0.000000
 41
1.000000
 42
1.000000
 43
1.000000
 50
0.000000
  0
ENDSEC
  0
EOF
